imdb
rating

6.5
Miss Bala

Miss Bala (2011)

Action, Drama, Thriller, Foreign

Full description

Miss Bala 2011 BRRip 720p x264 AAC - PRiSTiNE [P2PDL]

Size 676.176 MB   0 seeders     Added 2013-03-07 21:16:21

Stream torrent
Starting‥ You need BitLord! Get it from 1BitLord.com
To download or stream you need BitLord. Visit them at BitLord.com
_________________________  Visit us at _________________________
  
http://p2pdl.com  ____________________________  http://p2pdl.com

Miss Bala 2011 BRRip 720p x264 AAC - PRiSTiNE

Genre: Crime | Drama | Thriller
Plot: After entering a beauty contest in Tijuana, a young woman witnesses 
drug-related murders and is forced to do the gang's bidding.
Director: Gerardo Naranjo
Stars: Stephanie Sigman, Irene Azuela, Jose Yenque
Rated: Rated R for language, some brutal violence and sexuality

Info: 
http://www.imdb.com/title/tt1911600/

General
Complete name                  : Miss Bala 2011 BRRip 720p x264 AAC - PRiSTiNE.mp4
Format                         : MPEG-4
Format profile                 : Base Media
Codec ID                       : isom
File size                      : 637 MiB
Duration                       : 1h 52mn
Overall bit rate mode          : Variable
Overall bit rate               : 788 Kbps

Source                         : 720p BluRay PHD (Thanks)

Video
Format                         : AVC
Format/Info                    : Advanced Video Codec
Format profile                 : High 10@L4.1
Bit rate                       : 745 Kbps
Width                          : 1 280 pixels
Height                         : 544 pixels
Display aspect ratio           : 2.35:1
Frame rate mode                : Constant
Frame rate                     : 23.976 fps
Color space                    : YUV
Chroma subsampling             : 4:2:0
Bit depth                      : 10 bits
Scan type                      : Progressive
Bits/(Pixel*Frame)             : 0.045
Stream size                    : 602 MiB (95%)
Writing library                : x264 core 129 r2245 bc13772

Audio
Format                         : AAC
Bit rate mode                  : Variable
Bit rate                       : 40.0 Kbps
Channel(s)                     : 2 channels
Channel positions              : Front: L R
Sampling rate                  : 44.1 KHz / 22.05 KHz
Stream size                    : 32.3 MiB (5%)
Language                       : Spanish

Subtitle                       : Yes (English)

Screens: 
image 
image 
image 
image

Thumbs: 
image
----------------------------------------------------------------------------------------------------
Encoded using revolutionary 10bit encoding, which enables us to provide you more crispier 
and sharper images at small sizes, just make sure you follow our instructions without a fault.
Recommend to you to use latest version of VLC player. Install K-Lite Codec Pack or shark007 codecs
in case of any kind of problem in playback (For non-VLC Media Player users). Alternatively, install
Core AVC codecs, the fastest decoder that there is coupled with Community Center Codec Pack and play
on Windows Media Player Classic. Check sample to be sure.
Enjoy!		
Miss Bala 2011 BRRip 720p x264 AAC - PRiSTiNE [P2PDL]/Direct download from www.TinyBay.in.txt 35 B
Miss Bala 2011 BRRip 720p x264 AAC - PRiSTiNE [P2PDL]/Miss Bala 2011 BRRip 720p x264 AAC - PRiSTiNE/Miss Bala 2011 BRRip 720p x264 AAC - PRiSTiNE.mp4 667.99 MB
Miss Bala 2011 BRRip 720p x264 AAC - PRiSTiNE [P2PDL]/Miss Bala 2011 BRRip 720p x264 AAC - PRiSTiNE/Miss Bala 2011 BRRip 720p x264 AAC - PRiSTiNE.nfo 5.906 KB
Gathering some info...

Register and log in Isohunt and see no captcha anymore!

4000 symbols left
Hash 50a5a870eada14d64d78dccd8e555f5f861b50a1

Related torrents for "Miss Bala 2011 BRRip 720p x264 AAC - PRiSTiNE [P2PDL]"

Torrent search:

x264 hd bd 2011