An.2012.DVDRip.XviD.AC3[GTRD-Movies].avi

Size 1.511 GB   0 seeders     Added 2013-03-08 17:24:59

Stream torrent
Starting‥ You need BitLord! Get it from BitLord.com
To download or stream you need BitLord. Visit them at BitLord.com
Christopher Papakaliatis...Dimitris
Marina Kalogirou...Christina
Maro Kontou...Elenitsa Kokovikou
Giorgos Konstantinou... Antonakis Kokovikos
Themis Bazaka... Dimitris Mother
Maria Solomou... Maria
Vassilis Charalambopoulos...Vasilis
Fanis Mouratidis... Giorgos
Takis Spiridakis...Bartender
Tasos Iordanidis... Giannis
Akilas Karazisis... Producer
Dimitris Kastanias...Train Passenger
Iro Mitroutsikou
Alex Triantafullou... Train Passenger

      
-      

              ;
          ;
   ,   ,          ;

                                  .
    ,         ,     ,                .      .     ,              ,  45    ,       .                      .        ,           .
                 .
                     .  ;    ,      ,      .  .

-               ;
-       ,     



DVDRip ...........: egeneration[GTRD-movies]
Genres...........:   Drama | Romance                                      
Audio Codec.......:  AC-3                                  
Audio Bitrate.....: 448 Kbps
Runtime.......: 104 min
Language..........: Greek
Resolution......  720 x 304
IMDb URL..........: www.imdb.com/title/tt2400283/?ref_=fn_al_tt_2
Source........: DVD 

An.2012.DVDRip.XviD.AC3[GTRD-Movies]*OwnRip*



Format                                   : AVI
Format/Info                              : Audio Video Interleave
File size                                : 1.41 GiB
Duration                                 : 1h 47mn
Overall bit rate                         : 1 881 Kbps
Writing application                      : VirtualDubMod 1.5.10.2 (build 2542/release)
Writing library                          : VirtualDubMod build 2542/release

Video
Format                                   : MPEG-4 Visual
Format profile                           : Advanced Simple@L5
Format settings, BVOP                    : 2
Format settings, QPel                    : No
Format settings, GMC                     : No warppoints
Format settings, Matrix                  : Default (H.263)
Muxing mode                              : Packed bitstream
Codec ID                                 : XVID
Codec ID/Hint                            : XviD
Duration                                 : 1h 47mn
Bit rate                                 : 1 423 Kbps
Width                                    : 720 pixels
Height                                   : 304 pixels
Display aspect ratio                     : 2.35:1
Frame rate                               : 25.000 fps
Color space                              : YUV
Chroma subsampling                       : 4:2:0
Bit depth                                : 8 bits
Scan type                                : Progressive
Compression mode                         : Lossy
Bits/(Pixel*Frame)                       : 0.260
Stream size                              : 1.06 GiB (76%)
Writing library                          : XviD 64

Audio
Format                                   : AC-3
Format/Info                              : Audio Coding 3
Mode extension                           : CM (complete main)
Format settings, Endianness              : Big
Codec ID                                 : 2000
Duration                                 : 1h 47mn
Bit rate mode                            : Constant
Bit rate                                 : 448 Kbps
Channel(s)                               : 6 channels
Channel positions                        : Front: L C R, Side: L R, LFE
Sampling rate                            : 48.0 KHz
Bit depth                                : 16 bits
Compression mode                         : Lossy
Stream size                              : 343 MiB (24%)
Alignment                                : Split accross interleaves
Interleave, duration                     : 40 ms (1.00 video frame)
Interleave, preload duration             : 500 ms-------------------------------------Torrent downloaded from http://thepiratebay.se
An.2012.DVDRip.XviD.AC3[GTRD-Movies].avi 1.511 GB
Gathering some info...

Register and log in Isohunt and see no captcha anymore!

4000 symbols left
Hash 1da184e32bb7fd70168aa9e4e46f4a9b797d282d

Related torrents for "An.2012.DVDRip.XviD.AC3[GTRD-Movies].avi"

Torrent search:

dvdrip 2012