imdb
rating

5.8
Mortal Kombat

Mortal Kombat (1995)

Action, Fantasy

Full description
quality   hd bd dvdrip x264 fullhd dvdr

Mortal Kombat-720p MP4 AAC x264 BRRip 1995-CC

Size 3.031 GB   0 seeders     Added 2013-03-08 17:31:06

Stream torrent
Starting‥ You need BitLord! Get it from BitLord.com
To download or stream you need BitLord. Visit them at BitLord.com
 
http://www.imdb.com/title/tt0113855/

Source: Mortal Kombat 1995 720p Bluray X264-DIMENSION Thanks!

Subs: Arabic, Brazilian, Bulgarian, Czech, Danish, Dutch, English, Farsi-Persian, French, Greek, Hebrew, Indonesian, Portuguese, Romanian, Slovenian, Spanish, Swedish and Vietnamese.

Sample and Screens included.

General
Complete name                            : Mortal Kombat-720p MP4 AAC x264 BRRip 1995-CC.mp4
Format                                   : MPEG-4
Format profile                           : Base Media
Codec ID                                 : isom
File size                                : 2.79 GiB
Duration                                 : 1h 41mn
Overall bit rate mode                    : Variable
Overall bit rate                         : 3 938 Kbps
Encoded date                             : UTC 2013-02-13 14:46:42

Video
ID                                       : 1
Format                                   : AVC
Format/Info                              : Advanced Video Codec
Format profile                           : High@L4.1
Format settings, CABAC                   : Yes
Format settings, ReFrames                : 5 frames
Codec ID                                 : avc1
Codec ID/Info                            : Advanced Video Coding
Duration                                 : 1h 41mn
Bit rate                                 : 3 598 Kbps
Maximum bit rate                         : 22.0 Mbps
Width                                    : 1 280 pixels
Height                                   : 720 pixels
Display aspect ratio                     : 16:9
Frame rate mode                          : Variable
Frame rate                               : 23.976 fps
Minimum frame rate                       : 19.133 fps
Maximum frame rate                       : 24.390 fps
Color space                              : YUV
Chroma subsampling                       : 4:2:0
Bit depth                                : 8 bits
Scan type                                : Progressive
Bits/(Pixel*Frame)                       : 0.163
Stream size                              : 2.51 GiB (90%)
Writing library                          : x264 core 112

Audio
ID                                       : 2
Format                                   : AAC
Format/Info                              : Advanced Audio Codec
Format profile                           : LC
Codec ID                                 : 40
Duration                                 : 1h 41mn
Bit rate mode                            : Variable
Bit rate                                 : 384 Kbps
Maximum bit rate                         : 602 Kbps
Channel(s)                               : 6 channels
Channel positions                        : Front: L C R, Side: L R, LFE
Sampling rate                            : 48.0 KHz
Compression mode                         : Lossy
Delay relative to video                  : 83ms
Stream size                              : 278 MiB (10%)

Enjoy...

Requested by aartje80

Coming soon: Vertigo, Tropa de Elite, The Red Baron and more...		
Mortal Kombat-720p MP4 AAC x264 BRRip 1995-CC/Sample/Sample.mp4 28.322 MB
Mortal Kombat-720p MP4 AAC x264 BRRip 1995-CC/Screens-Info/Mortal Kombat-720p MP4 AAC x264 BRRip 1995-CC.mp4_snapshot_00.51.12.png 2.028 MB
Mortal Kombat-720p MP4 AAC x264 BRRip 1995-CC/Screens-Info/Mortal Kombat-720p MP4 AAC x264 BRRip 1995-CC.mp4_snapshot_00.33.12.png 1.611 MB
Gathering some info...

Register and log in Isohunt and see no captcha anymore!

4000 symbols left
Hash 46197ce84720232a07f9d442c4489104e2c87b0e

Related torrents for "Mortal Kombat-720p MP4 AAC x264 BRRip 1995-CC"

Torrent search:

1995 x264 hd bd