imdb
rating

6.6
Pocahontas

Pocahontas (1995)

Adventure, Animation, Drama, Family

Full description
quality   dvdrip x264 hdtv hd fullhd bd

Pocahontas-1(1995)720p BDRip[Hindi-Eng]-DGrea8

Size 910.518 MB   4 seeders     Added 2013-03-09 00:48:36

Stream torrent
Starting‥ You need BitLord! Get it from BitLord.com
To download or stream you need BitLord. Visit them at BitLord.com
              Pocahontas-1(1995)720p BDRip In[Hindi-Eng]-DGrea8


Summary:-


Capt. John Smith leads a rag-tag band of English sailors & soldiers to the New World to plunder its riches for England (or, more precisely, for Governor Ratcliffe, who comes along for the ride). Meanwhile, in this "New World," Chief Powhatan has pledged his daughter, Pocahontas, to be married to the village's greatest warrior. Pocahontas, however, has other ideas. She has seen a vision of a spinning arrow, a vision she believes tells her change is coming. Her life does indeed change when the English ship lands near her village. Between Ratcliffe, who believes the "savages" are hiding the gold he expected to be plentiful, and Powhatan, who believes these pale newcomers will destroy their land, Smith and Pocahontas have a difficult time preventing all-out war, and saving their love for each other.


Cast:-

Irene Bedard...........Pocahontas (voice)
Judy Kuhn..............Pocahontas (singing voice)
Mel Gibson.............John Smith (voice)
David Ogden Stiers.....Governor Ratcliffe / Wiggins (voice)
John Kassir............Meeko (voice)
Russell Means..........Powhatan (voice)
Christian Bale.........Thomas (voice)
Linda Hunt.............Grandmother Willow (voice)
Danny Mann.............Percy (voice)
Billy Connolly.........Ben (voice)
Joe Baker..............Lon (voice)
Frank Welker...........Flit (voice)
Michelle St. John......Nakoma (voice)
James Apaumut Fall.....Kocoum (voice)
Gordon Tootoosis.......Kekata (voice)


Video & Audio Info.:-

Directors: Mike Gabriel, Eric Goldberg
Writers: Carl Binder, Susannah Grant
Stars: Mel Gibson, Linda Hunt, Christian Bale



Video
ID : 1
Format : AVC
Duration : 1h 17mn
Bit rate : 1 064 Kbps
Width : 1 280 pixels
Height : 720 pixels
Display aspect ratio : 16:9
Frame rate mode : Variable
Frame rate : 25.000 fps
Color space : YUV
Chroma subsampling : 4:2:0
Bit depth : 8 bits
Scan type : Progressive
Stream size : 592 MiB (69%)

Audio #1
ID : 2
Format : AC-3
Format/Info : Audio Coding 3
Mode extension : CM (complete main)
Muxing mode : Header stripping
Codec ID : A_AC3
Duration : 1h 17mn
Bit rate mode : Constant
Bit rate : 224 Kbps
Channel(s) : 6 channels
Channel positions : Front: L C R, Side: L R, LFE
Sampling rate : 48.0 KHz
Bit depth : 16 bits
Compression mode : Lossy
Stream size : 125 MiB (15%)
Language : English

Audio #2
ID : 3
Format : MPEG Audio
Format version : Version 1
Format profile : Layer 2
Muxing mode : Header stripping
Codec ID : A_MPEG/L2
Codec ID/Hint : MP2
Duration : 1h 17mn
Bit rate mode : Constant
Bit rate : 224 Kbps
Channel(s) : 2 channels
Sampling rate : 48.0 KHz
Compression mode : Lossy
Delay relative to video : 24ms
Stream size : 125 MiB (15%)
Title : Hindi
Language : Hindi


Subtitle Languages : Chinese,English


Screen Shoots:-
    
image
 
image
 
image
 
image
 
image

Note:--

 Check The Sample Video In This Torrent			
Pocahontas-1(1995)720p BDRip[Hindi-Eng]-DGrea8/SAMPLE/1.jpg 102.67 KB
Pocahontas-1(1995)720p BDRip[Hindi-Eng]-DGrea8/_____padding_file_0_if you see this file, please update to BitComet 0.85 or above____ 159.474 KB
Pocahontas-1(1995)720p BDRip[Hindi-Eng]-DGrea8/SAMPLE/2.jpg 141.394 KB
Gathering some info...

Register and log in Isohunt and see no captcha anymore!

4000 symbols left
Hash a576a03cfe92f1ca3c63d2802eb982927175dbc4

Related torrents for "Pocahontas-1(1995)720p BDRip[Hindi-Eng]-DGrea8"

Torrent search:

english 1995 hd hindi bd