imdb
rating

6.2
This Is 40

This Is 40 (2012)

Comedy

Full description
quality   hd dvdrip x264 bd fullhd

This is 40 2012 BRRip 720p x264 AAC - PRiSTiNE [P2PDL]

Size 797.199 MB   0 seeders     Added 2013-03-09 06:01:15

Stream torrent
Starting‥ You need BitLord! Get it from BitLord.com
To download or stream you need BitLord. Visit them at BitLord.com
_________________________  Visit us at _________________________
  
http://p2pdl.com  ____________________________  http://p2pdl.com


This is 40 2012 BRRip 720p x264 AAC - PRiSTiNE

Genre: Comedy
Plot: A look at the lives of Pete and Debbie a few years after the events of Knocked Up.
Director: Judd Apatow
Stars: Paul Rudd, Leslie Mann, Maude Apatow.
Rated: R for sexual content, crude humor, pervasive language and some drug material.


Info: 
http://www.imdb.com/title/tt1758830/

Trailer:


Format                         : MPEG-4
File size                      : 753 MiB
Duration                       : 2h 17mn
Video Format                   : AVC
Width                          : 1 280 pixels
Height                         : 536 pixels
Display aspect ratio           : 2.40:1
Frame rate mode                : Constant
Frame rate                     : 23.976 fps
Stream size                    : 687 MiB (91%)
Writing library                : x264 core 129
Audio Format                   : AAC
Duration                       : 2h 17mn
Audio Bit rate                 : 64.0 Kbps
Channel(s)                     : 2 channels
Channel positions              : Front: L R
Sampling rate                  : 48.0 KHz / 24.0 KHz
Stream size                    : 62.7 MiB (8%)
Language                       : English
Subtitle                       : Yes(English)
Source                         : UNRATED.720p.BluRay.x264-ALLiANCE(Thanks)

Screenshots:
 
image


----------------------------------------------------------------------------------------------------


Recommend to you to use latest version of VLC player. Install K-Lite Codec Pack or shark007 codecs
in case of any kind of problem in playback (For non-VLC Media Player users). Alternatively, install
Core AVC codecs, the fastest decoder that there is coupled with Community Center Codec Pack and play
on Windows Media Player Classic.

Encoder Notes: Looking For Early Access To Anything You Can Provide DVDScr, R5, DVDR, BluRay, Direct
Audio, Early Music Releases, Seedboxes, Dedicated Servers anything u can provide, Advance / Promo CDs/
DVDs. If You Got anything to offer contact me at "prg@hush.com".		
This is 40 2012 BRRip 720p x264 AAC - PRiSTiNE [P2PDL]/This is 40 2012 BRRip 720p x264 AAC - PRiSTiNE/This is 40 2012 BRRip 720p x264 AAC - PRiSTiNE.mp4 789.611 MB
This is 40 2012 BRRip 720p x264 AAC - PRiSTiNE [P2PDL]/Sample.mp4 7.375 MB
This is 40 2012 BRRip 720p x264 AAC - PRiSTiNE [P2PDL]/This is 40 2012 BRRip 720p x264 AAC - PRiSTiNE/This is 40 2012 BRRip 720p x264 AAC - PRiSTiNE.srt 208.371 KB
Gathering some info...

Register and log in Isohunt and see no captcha anymore!

4000 symbols left
Hash cdcd80659133685db22cbf256dd4b92348acb977

Related torrents for "This is 40 2012 BRRip 720p x264 AAC - PRiSTiNE [P2PDL]"

Torrent search:

x264 hd 2012 bd