imdb
rating

5.9
The Host

The Host (2013)

Action, Adventure, Science Fiction, Thriller, Romance

Full description

The Host 2013 Dvd-Rip XviD - PRESTiGE Verified

Size 775.961 MB   0 seeders     Added 2013-03-09 13:16:29

Stream torrent
Starting‥ You need BitLord! Get it from BitLord.com
To download or stream you need BitLord. Visit them at BitLord.com

*******************************************************************************
               The Host 2013 Dvd-Rip XviD - PRESTiGE
*******************************************************************************


General Information:

Complete name                            : 

The Host 2013 Dvd-Rip XviD - PRESTiGE

Format                                   : AVI
Format/Info                              : Audio Video Interleave
Format profile                           : OpenDML
File size                                : 757 Mb
Duration                                 : 115 Min
Overall bit rate                         : 1 756 Kbps
Language                                 : English
Subs                                     : N/A
Source                                   : 720p-FASM Many THANKS
Encoder                                  : akosipalos
 
http://www.imdb.com/title/tt1517260/

Video

ID                                       : 0
Format                                   : MPEG-4 Visual
Format profile                           : Advanced Simple@L5
Format settings, BVOP                    : 2
Format settings, QPel                    : No
Format settings, GMC                     : No warppoints
Format settings, Matrix                  : Default (H.263)
Codec ID                                 : XVID
Codec ID/Hint                            : XviD
Duration                                 : 115 min
Bit rate                                 : 1 303 Kbps
Width                                    : 720 pixels
Height                                   : 304 pixels
Display aspect ratio                     : 2.35:1
Frame rate                               : 23.976 fps
Color space                              : YUV
Chroma subsampling                       : 4:2:0
Bit depth                                : 8 bits
Scan type                                : Progressive
Compression mode                         : Lossy
Bits/(Pixel*Frame)                       : 0.248
Stream size                              : 1.56 GiB (74%)
Writing library                          : XviD 1.2.1 (UTC 2008-12-04)

Audio

ID                                       : 1
Format                                   : AC-3
Format/Info                              : Audio Coding 3
Mode extension                           : CM (complete main)
Codec ID                                 : 2000
Duration                                 : 115 min
Bit rate mode                            : Constant
Bit rate                                 : 448 Kbps
Channel(s)                               : 2 channels
Channel positions                        : Front: L R
Sampling rate                            : 48.0 KHz
Bit depth                                : 16 bits
Compression mode                         : Lossy
Stream size                              : 548 MiB (26%)
Alignment                                : Split accross interleaves
Interleave, duration                     : 500 ms (11.99 video frames)
Interleave, preload duration             : 500 ms


Plot:

A parasitic alien soul is injected into the body of Melanie Stryder. Instead of carrying out her race's mission of taking over the Earth, "Wanda" (as she comes to be called) forms a bond with her host and sets out to aid other free humans.  


Screens:



Release Notes:

WE DONT RELEASE EVERYTHiNG TO OTHERS SiTES YOU WANT MORE OF OUR STUFF COME FiND US AT .......

WE ARE LOOKING FOR SUPPLiERS BLURAY, CAM, R5, PRE RETAiL DVD GOT SOMETHiNG WE MiGHT LiKE WHEN YOU FiND US TELL US.......


GREETZ:

Twisted | Bigguy | CTFX | Whitestag13 | THoRN | SANTi | PA4U2C | Jungledave | mtyy
| marsby | cld | Stortrapp | rizal | mannilim | Rock | Ulap | centserick2 | Galactica |
musikera | Tukmol | rock3r | canislupus | sickie | fun2knytz | lilyrose | Dreamer
 RiZAL Team Release | TRiNiTY | LEGi0N | LEGiTiMATE | HiVE-CM8 | BHRG | DTRG 
  CrEwSaDe | Rx | LKRG | THC | aTLas | SiC | AbSurdiTy 

[img]image[/img]

PRESTiGE is the level of respect at which one is regarded by others....RIzE Above Or Sink Below...
		
The Host 2013 Dvd-Rip XviD - PRESTiGE/The Host 2013 Dvd-Rip XviD - PRESTiGE.avi 775.946 MB
The Host 2013 Dvd-Rip XviD - PRESTiGE/cover.jpg 9.332 KB
The Host 2013 Dvd-Rip XviD - PRESTiGE/PRESTiGE.nfo 4.236 KB
Gathering some info...

Register and log in Isohunt and see no captcha anymore!

4000 symbols left
Hash 6b9f316a662ab818f84fc96ae9f803d24d065cc7

Related torrents for "The Host 2013 Dvd-Rip XviD - PRESTiGE"

Torrent search:

2013