imdb
rating

7.1
How the West Was Won

How the West Was Won (1962)

Action, Adventure, Drama, Western

Full description
quality   fullhd hd x264 dvdrip h264 bd hdtv

How the West Was Won [1962] 720p BRRip H264 AC3 - CODY

Size 2.586 GB   0 seeders     Added 2013-03-09 16:00:35

Stream torrent
Starting‥ You need BitLord! Get it from BitLord.com
To download or stream you need BitLord. Visit them at BitLord.com
General
Complete name                            : How the West Was Won [1962] 720p BRRip H264 AC3 - CODY.mp4
Format                                   : MPEG-4
Format profile                           : Base Media
Codec ID                                 : isom
File size                                : 2.41 GiB
Duration                                 : 2h 44mn
Overall bit rate mode                    : Variable
Overall bit rate                         : 2 091 Kbps
Encoded date                             : UTC 2013-01-18 11:53:12

Video
ID                                       : 1
Format                                   : AVC
Format/Info                              : Advanced Video Codec
Format profile                           : High@L4.1
Format settings, CABAC                   : Yes
Format settings, ReFrames                : 5 frames
Codec ID                                 : avc1
Codec ID/Info                            : Advanced Video Coding
Duration                                 : 2h 44mn
Bit rate mode                            : Variable
Bit rate                                 : 1 640 Kbps
Maximum bit rate                         : 20.0 Mbps
Width                                    : 1 280 pixels
Height                                   : 440 pixels
Display aspect ratio                     : 2.909
Frame rate mode                          : Constant
Frame rate                               : 24.000 fps
Color space                              : YUV
Chroma subsampling                       : 4:2:0
Bit depth                                : 8 bits
Scan type                                : Progressive
Bits/(Pixel*Frame)                       : 0.121
Stream size                              : 1.89 GiB (78%)
Writing library                          : x264 core 125 r2208 d9d2288
Encoding settings                        : rc=2pass
Color primaries                          : Generic film

Audio
ID                                       : 2
Format                                   : AC-3
Format/Info                              : Audio Coding 3
Mode extension                           : CM (complete main)
Format settings, Endianness              : Big
Codec ID                                 : ac-3
Duration                                 : 2h 44mn
Bit rate mode                            : Constant
Bit rate                                 : 448 Kbps
Channel(s)                               : 6 channels
Channel positions                        : Front: L C R, Side: L R, LFE
Sampling rate                            : 48.0 KHz
Bit depth                                : 16 bits
Compression mode                         : Lossy
Delay relative to video                  : 125ms
Stream size                              : 528 MiB (21%)

Audio language                           : English

IMDB link:                                 http://www.imdb.com/title/tt0056085/

Subtitles included                       : Danish, Dutch, English, Finnish, 
                                           French, German, Italian, Norwegian, 
                                           Portuguese, Romanian, Spanish, Swedish

Please seed at least 1,5:1. This way this torrent has a chance to survive !

Thanks . Enjoy !!!		
How the West Was Won [1962] 720p BRRip H264 AC3 - CODY/Cover.jpg 647.652 KB
How the West Was Won [1962] 720p BRRip H264 AC3 - CODY/How the West Was Won [1962] 720p BRRip H264 AC3 - CODY.Danish.srt 108.601 KB
How the West Was Won [1962] 720p BRRip H264 AC3 - CODY/How the West Was Won [1962] 720p BRRip H264 AC3 - CODY.Dutch.srt 120.781 KB
Gathering some info...

Register and log in Isohunt and see no captcha anymore!

4000 symbols left
Hash 00449e7ce5caba50433515253772619ac51379fe

Related torrents for "How the West Was Won [1962] 720p BRRip H264 AC3 - CODY"

Torrent search:

h264 1962 hd bd