imdb
rating

7.1
How the West Was Won

How the West Was Won (1962)

Action, Adventure, Drama, Western

Full description
quality   fullhd hd x264 dvdrip h264 bd hdtv

How the West Was Won [1962] BRRip XviD - CODY

Size 1.186 GB   11 seeders     Added 2013-03-09 16:15:36

Stream torrent
Starting‥ You need BitLord! Get it from 1BitLord.com
To download or stream you need BitLord. Visit them at BitLord.com
General
Complete name                            : How the West Was Won [1962] BRRip XviD - CODY.avi
Format                                   : AVI
Format/Info                              : Audio Video Interleave
File size                                : 1.10 GiB
Duration                                 : 2h 44mn
Overall bit rate                         : 958 Kbps
Writing application                      : VirtualDubMod 1.5.10.3 | www.virtualdub-fr.org || (build 2550/release)
Writing library                          : VirtualDubMod build 2550/release

Video
ID                                       : 0
Format                                   : MPEG-4 Visual
Format profile                           : Advanced Simple@L5
Format settings, BVOP                    : 4
Format settings, QPel                    : No
Format settings, GMC                     : No warppoints
Format settings, Matrix                  : Default (H.263)
Muxing mode                              : Packed bitstream
Codec ID                                 : XVID
Codec ID/Hint                            : XviD
Duration                                 : 2h 44mn
Bit rate                                 : 821 Kbps
Width                                    : 720 pixels
Height                                   : 248 pixels
Display aspect ratio                     : 2.903
Frame rate                               : 24.000 fps
Color space                              : YUV
Chroma subsampling                       : 4:2:0
Bit depth                                : 8 bits
Scan type                                : Progressive
Compression mode                         : Lossy
Bits/(Pixel*Frame)                       : 0.192
Stream size                              : 967 MiB (86%)
Writing library                          : XviD 65

Audio
ID                                       : 1
Format                                   : MPEG Audio
Format version                           : Version 1
Format profile                           : Layer 3
Codec ID                                 : 55
Codec ID/Hint                            : MP3
Duration                                 : 2h 44mn
Bit rate mode                            : Constant
Bit rate                                 : 128 Kbps
Channel(s)                               : 2 channels
Sampling rate                            : 48.0 KHz
Compression mode                         : Lossy
Stream size                              : 151 MiB (13%)
Alignment                                : Aligned on interleaves
Interleave, duration                     : 42 ms (1.00 video frame)
Interleave, preload duration             : 504 ms
Writing library                          : LAME3.99r
Encoding settings                        : -m s -V 4 -q 2 -lowpass 17 -b 128

Audio language                           : English

IMDB link:                                 http://www.imdb.com/title/tt0056085/

Subtitles included                       : Danish, Dutch, English, Finnish, 
                                           French, German, Italian, Norwegian, 
                                           Portuguese, Romanian, Spanish, Swedish

Please seed at least 1,5:1. This way this torrent has a chance to survive !

Thanks . Enjoy !!!				
How the West Was Won [1962] BRRip XviD - CODY/Cover.jpg 647.652 KB
How the West Was Won [1962] BRRip XviD - CODY/How the West Was Won [1962] BRRip XviD - CODY.avi 1.183 GB
How the West Was Won [1962] BRRip XviD - CODY/How the West Was Won [1962] BRRip XviD - CODY.Danish.srt 108.601 KB
Gathering some info...

Register and log in Isohunt and see no captcha anymore!

4000 symbols left
Hash b190e36c8e5c8ad0331e9e9c05d1332af88d6aaf

Related torrents for "How the West Was Won [1962] BRRip XviD - CODY"

Torrent search:

1962 bd