2013.03.09.6N.Scotland.v.Wales.720p.x264

Size 2.932 GB   0 seeders     Added 2013-03-09 19:25:09

Stream torrent
Starting‥ You need BitLord! Get it from BitLord.com
To download or stream you need BitLord. Visit them at BitLord.com
SPORT: Six Nations Rugby Union - Scotland v Wales
On: BBC 1 HD
Date: Saturday 9th March 2013 
KO Time: 14:30
Live coverage of the opening round four fixture of the 2013 Six Nations tournament. Scotland and Wales suffered demoralising defeats at the start of their respective campaigns, but both teams then hit back with impressive wins a week later. The visitors - the reigning Grand Slam champions - are slowly adjusting to being led by Rob Howley, while normal head coach Warren Gatland is busy putting his full focus on assembling a British and Irish Lions squad. When the two nations met in Cardiff last year, Wales kept their nerve to carve out a ruthless 27-13 victory, as three tries in a devastating 14-minute spell early in the second half broke the resistance of Scotland, who had impressively gone in level at the break with three points apiece. Commentary by Andrew Cotter and Jonathan Davies.
General
Complete name: 2013.03.09.6N.Scotland.v.Wales.720p.x264.mp4
Format: MPEG-4
Format profile: Base Media
Codec ID: isom
File size: 2.73 GiB
Duration: 1h 43mn
Overall bit rate mode: Variable
Overall bit rate: 3 757 Kbps
Video
ID: 1
Format: AVC
Format/Info: Advanced Video Codec
Format profile: High@L4.1
Format settings, CABAC: Yes
Format settings, ReFrames: 5 frames
Codec ID: avc1
Codec ID/Info: Advanced Video Coding
Duration: 1h 43mn
Bit rate: 3 629 Kbps
Maximum bit rate: 12.4 Mbps
Width: 1 280 pixels
Height: 720 pixels
Display aspect ratio: 16:9
Frame rate mode: Constant
Frame rate: 25.000 fps
Color space: YUV
Chroma subsampling: 4:2:0
Bit depth: 8 bits
Scan type: Progressive
Bits/(Pixel*Frame): 0.158
Stream size: 2.64 GiB (97%)
Writing library: x264 core 130 r2273 b3065e6
Audio
ID: 2
Format: AAC
Format/Info: Advanced Audio Codec
Format profile: LC
Codec ID: 40
Duration: 1h 43mn
Bit rate mode: Variable
Bit rate: 124 Kbps
Maximum bit rate: 128 Kbps
Channel(s): 2 channels
Channel positions: Front: L R
Sampling rate: 48.0 KHz
Compression mode: Lossy
Stream size: 92.1 MiB (3%)		
2013.03.09.6N.Scotland.v.Wales.720p.x264/2013.03.09.6N.Scotland.v.Wales.720p.x264.mp4 2.93 GB
2013.03.09.6N.Scotland.v.Wales.720p.x264/2013.03.09.6N.Scotland.v.Wales.720p.x264.png 1.078 MB
2013.03.09.6N.Scotland.v.Wales.720p.x264/2013.03.09.6N.Scotland.v.Wales.720p.x264.nfo 2.066 KB
Gathering some info...

Register and log in Isohunt and see no captcha anymore!

4000 symbols left
Hash 079725e1812dbaa419290df85e82ad5360d43250