Shadow.People.2012.WEBRip XVID juggs

Size 746.645 MB   164 seeders     Added 2013-03-09 19:46:02

Stream torrent
Starting‥ You need BitLord! Get it from BitLord.com
To download or stream you need BitLord. Visit them at BitLord.com
Source : NGB


Format : AVI
Format/Info : Audio Video Interleave
File size : 705 MiB
Duration : 1h 28mn
Overall bit rate : 1 108 Kbps
Writing library : VirtualDub build 32842/release

Video
ID : 0
Format : MPEG-4 Visual
Format profile : Advanced Simple@L5
Format settings, BVOP : 4
Format settings, QPel : No
Format settings, GMC : No warppoints
Format settings, Matrix : Default (H.263)
Muxing mode : Packed bitstream
Codec ID : XVID
Codec ID/Hint : XviD
Duration : 1h 28mn
Bit rate : 971 Kbps
Width : 604 pixels
Height : 252 pixels
Display aspect ratio : 2.40:1
Frame rate : 23.976 fps
Color space : YUV
Chroma subsampling : 4:2:0
Bit depth : 8 bits
Scan type : Progressive
Compression mode : Lossy
Bits/(Pixel*Frame) : 0.266
Stream size : 618 MiB (88%)
Writing library : XviD 64

Audio
ID : 1
Format : MPEG Audio
Format version : Version 1
Format profile : Layer 3
Mode : Joint stereo
Mode extension : MS Stereo
Codec ID : 55
Codec ID/Hint : MP3
Duration : 1h 28mn
Bit rate mode : Constant
Bit rate : 128 Kbps
Channel(s) : 2 channels
Sampling rate : 44.1 KHz
Compression mode : Lossy
Stream size : 81.4 MiB (12%)
Alignment : Split accross interleaves
Interleave, duration : 42 ms (1.00 video frame)
Interleave, preload duration : 500 ms
Writing library : LAME3.98

Plot
A radio talk show host unravels a conspiracy about encounters with mysterious beings known as The Shadow People and their role in the unexplained deaths of several hundred victims in the 1980s

 
image 
image 
image 
image		
Shadow.People.2012.WEBRip XVID juggs/Shadow.People.2012.WEBRip XVID juggs.avi 739.261 MB
Shadow.People.2012.WEBRip XVID juggs/Torrent Downloaded From ExtraTorrent.com.txt 339 B
Shadow.People.2012.WEBRip XVID juggs/sample.avi 7.383 MB
Gathering some info...

Register and log in Isohunt and see no captcha anymore!

4000 symbols left
Hash dbe4ef0be1f3cec47c2a58d811f21330677fb661