Sisterakas [2012] DVDRip elite-pirates.com

Size 1.469 GB   39 seeders     Added 2013-03-10 16:53:46

Stream torrent
Starting‥ You need BitLord! Get it from BitLord.com
10
To download or stream you need BitLord. Visit them at BitLord.com
 image




Sisterakas [2012] DVDRip EP



info:


Imdb                             : http://www.imdb.com/title/tt2590214/
Genres                           : Comedy
Director                         : Wenn V. Deramas
Audio Language                   : Filipino | Tagalog
Country                          : Philippines



General
Complete name                            : Sisterakas [2012] DVDRip EP.avi
Format                                   : AVI
Format/Info                              : Audio Video Interleave
File size                                : 1.37 GiB
Duration                                 : 1h 45mn
Overall bit rate                         : 1 862 Kbps
Writing application                      : VirtualDubMod

Video
ID                                       : 0
Format                                   : AVC
Format/Info                              : Advanced Video Codec
Format profile                           : High@L3.1
Format settings, CABAC                   : Yes
Format settings, ReFrames                : 3 frames
Codec ID                                 : H264
Duration                                 : 1h 45mn
Bit rate                                 : 1 660 Kbps
Width                                    : 1 254 pixels
Height                                   : 720 pixels
Display aspect ratio                     : 16:9
Frame rate                               : 25.000 fps
Color space                              : YUV
Chroma subsampling                       : 4:2:0
Bit depth                                : 8 bits
Scan type                                : Progressive
Bits/(Pixel*Frame)                       : 0.074
Stream size                              : 1.22 GiB (89%)
Writing library                          : x264 core 119 r2106kMod 07efeb4
Encoding settings                        : cabac=1 / ref=3 / deblock=1:0:0

Audio
ID                                       : 1
Format                                   : MPEG Audio
Format version                           : Version 1
Format profile                           : Layer 3
Codec ID                                 : 55
Codec ID/Hint                            : MP3
Duration                                 : 1h 45mn
Bit rate mode                            : Constant
Bit rate                                 : 192 Kbps
Channel(s)                               : 2 channels
Sampling rate                            : 44.1 KHz
Compression mode                         : Lossy
Stream size                              : 144 MiB (10%)
Alignment                                : Split accross interleaves
Interleave, duration                     : 40 ms (1.00 video frame)
Interleave, preload duration             : 500 ms
Writing library                          : LAMELAME_MAJOR_VERSI





cast:

Main

Ai-Ai Delas Alas as Bernadette "Detty" Sabroso-Maningas
Vice Ganda as Bernardo "Totoy/Bernice" Laurel Sabroso
Kris Aquino as Roselle Hermosa
Kathryn Bernardo as Katherine "Kathy" Maningas
Daniel Padilla as Angelo Santos
Xyriel Manabat as Cindy Maningas
 
Supporting

Tirso Cruz III as Simon Hermosa
Gloria Diaz as Maria Laurel
DJ Durano as James
Daniel Matsunaga as Marlon
Wilma Doesnt
Thou Reyes
Tess Antonio
Joey Paras
Joy Viado
Callum David
Rubi Rubi as Cara Sabroso
Epi Quizon as Rafael Sabroso
Beauty Gonzales as Young Maria
Maliksi Morales as Young Totoy
Abby Bautista as Young Detty
Negi


Special participation

Gardo Versoza
Melai Cantiveros as Bernice's Executive Assistant
Ruth Linganay
Luis Manzano as Waiter
Ervin Mariano



plot:


The childhoods of Bernice (Vice Ganda) & Detty (Ai-Ai Delas Alas) were world's apart, but they did have one 

thing in common: their father. Bernice's birth was the result of an infidelity on his behalf, however, 

and so while Detty grew up with a wealthy family, Bernice and his mother were left to fend for themselves. 

Years later, Bernice has become a wealthy and successful businessman, the so-called "Lord of Apparels". 

But his abrasive personality and rudeness has led to the resignation of his 75th assistant. Detty, meanwhile, 

is in dire need of a job and applies for the newly vacated position as executive assistant to a man that, 

unbeknownst to her, is actually her half-brother. Bernice knows exactly who she is and hires her. For Detty, 

this job means she can take care of her daughters; for Bernice, its a chance for payback. Meanwhile, 

the main rival of Bernices company is currently posing as very strong competition. Headed by the eccentric 

yet equally brilliant & talented Roselle (Kris Aquino) the competition gets tougher, and a string of events 

lead to the two company heads fighting over the once expendable Detty. 



Screenshot:
 
image 
image 
image 
image 
image 
image 
image		
Sisterakas [2012] DVDRip elite-pirates.com/torrent downloaded from elite-pirates.com.txt 664 B
Sisterakas [2012] DVDRip elite-pirates.com/Torrent downloaded from AhaShare.com.txt 59 B
Sisterakas [2012] DVDRip elite-pirates.com/Sisterakas [2012] DVDRip elite-pirates.com.avi 1.469 GB
Gathering some info...

Register and log in Isohunt and see no captcha anymore!

4000 symbols left
Hash 7356271109e87d8a6b43221727606dcb62138b17