imdb
rating

5.2
Java Heat

Java Heat (2013)

Action, Crime, Drama, Thriller

Full description
quality   bd x264 hd fullhd h264 dvdrip

java.heat.2013.BRRip XViD juggs

Size 747.646 MB   0 seeders     Added 2013-03-10 19:38:29

Stream torrent
Starting‥ You need BitLord! Get it from BitLord.com
To download or stream you need BitLord. Visit them at BitLord.com
							
Format : AVI
Format/Info : Audio Video Interleave
File size : 706 MiB
Duration : 1h 43mn
Overall bit rate : 952 Kbps
Writing library : VirtualDub build 32842/release
Video
ID : 0
Format : MPEG-4 Visual
Format profile : Advanced Simple@L5
Format settings, BVOP : 2
Format settings, QPel : No
Format settings, GMC : No warppoints
Format settings, Matrix : Default (H.263)
Muxing mode : Packed bitstream
Codec ID : XVID
Codec ID/Hint : XviD
Duration : 1h 43mn
Bit rate : 814 Kbps
Width : 640 pixels
Height : 272 pixels
Display aspect ratio : 2.35:1
Frame rate : 23.976 fps
Color space : YUV
Chroma subsampling : 4:2:0
Bit depth : 8 bits
Scan type : Progressive
Compression mode : Lossy
Bits/(Pixel*Frame) : 0.195
Stream size : 604 MiB (86%)
Writing library : XviD 64
Audio
ID : 1
Format : MPEG Audio
Format version : Version 1
Format profile : Layer 3
Codec ID : 55
Codec ID/Hint : MP3
Duration : 1h 43mn
Bit rate mode : Constant
Bit rate : 128 Kbps
Channel(s) : 2 channels
Sampling rate : 44.1 KHz
Compression mode : Lossy
Stream size : 95.0 MiB (13%)
Alignment : Split accross interleaves
Interleave, duration : 42 ms (1.00 video frame)
Interleave, preload duration : 500 ms
Writing library : LAME3.99r
Encoding settings : -m s -V 4 -q 3 -lowpass 17 -b 128
Plot
An American in Indonesia teams up with a Muslim cop to track down a terrorist.
[embed=youtube]http://www.youtube.com/watch?v=omK4dAuo_hw[/
						
java.heat.2013.BRRip XViD juggs/Torrent Downloaded From ExtraTorrent.com.txt 339 B
java.heat.2013.BRRip XViD juggs/java.heat.2013.BRRip XViD juggs.avi 740.582 MB
java.heat.2013.BRRip XViD juggs/sample.avi 7.064 MB
Gathering some info...

Register and log in Isohunt and see no captcha anymore!

4000 symbols left
Hash 6bb9842c2c51409cde04e88ef8724dd9fb81e146

Related torrents for "java.heat.2013.BRRip XViD juggs"

Torrent search:

bd 2013