Amazing Racer 2012 DVDRip XViD juggs

Size 742.866 MB   0 seeders     Added 2013-03-10 19:57:21

Stream torrent
Starting‚Ä• You need BitLord! Get it from 1BitLord.com
To download or stream you need BitLord. Visit them at BitLord.com
							
Source : DVDR IGUANA
Format : AVI
Format/Info : Audio Video Interleave
File size : 700 MiB
Duration : 1h 31mn
Overall bit rate : 1 068 Kbps
Writing library : VirtualDub build 32842/release
Video
ID : 0
Format : MPEG-4 Visual
Format profile : Advanced Simple@L5
Format settings, BVOP : 4
Format settings, QPel : No
Format settings, GMC : No warppoints
Format settings, Matrix : Default (H.263)
Muxing mode : Packed bitstream
Codec ID : XVID
Codec ID/Hint : XviD
Duration : 1h 31mn
Bit rate : 930 Kbps
Width : 640 pixels
Height : 256 pixels
Display aspect ratio : 2.500
Frame rate : 23.976 fps
Color space : YUV
Chroma subsampling : 4:2:0
Bit depth : 8 bits
Scan type : Progressive
Compression mode : Lossy
Bits/(Pixel*Frame) : 0.237
Stream size : 610 MiB (87%)
Writing library : XviD 64
Audio
ID : 1
Format : MPEG Audio
Format version : Version 1
Format profile : Layer 3
Mode : Joint stereo
Codec ID : 55
Codec ID/Hint : MP3
Duration : 1h 31mn
Bit rate mode : Constant
Bit rate : 128 Kbps
Channel(s) : 2 channels
Sampling rate : 44.1 KHz
Compression mode : Lossy
Stream size : 83.9 MiB (12%)
Alignment : Split accross interleaves
Interleave, duration : 42 ms (1.00 video frame)
Interleave, preload duration : 500 ms
Writing library : LAME3.98
Plot
After the sudden death of her father leaves a teenage girl without a family, she becomes lost in her own anger and sadness. Her family doctor (Daryl Hannah) informs her that her father had a secret, that the mother she never knew (Claire Forlani) was alive and well. When she travels to meet her, she befriends a horse trainer (Louis Gossett Jr) and discovers that in caring for the horse, she is able to overcome her hardships and emotional trauma. Together they begin to win many races and upset the favorites, owned by an egocentric mogul (Eric Roberts). Through the victories and new friendships she forms, she learns to find her way back to happiness.
[embed=youtube]http://www.youtube.com/watch?v=Z8-BkJ1hcbQ[/embed]
						
Amazing Racer 2012 DVDRip XViD juggs/Amazing Racer 2012 DVDRip XViD juggs.avi 733.82 MB
Amazing Racer 2012 DVDRip XViD juggs/Torrent Downloaded From ExtraTorrent.com.txt 339 B
Amazing Racer 2012 DVDRip XViD juggs/sample.avi 9.046 MB
Gathering some info...

Register and log in Isohunt and see no captcha anymore!

4000 symbols left
Hash 0d043a8fe7a42352c2de1fa5e0ba2b5cf5ff002f