imdb
rating

8.2
Black Dynamite

Black Dynamite (2012)

Action, Animation, Comedy

Full description

Black Dynamite Crises form Christmas, or Dark Side of the Dark Side of the Moon .mp4

Size 305.474 MB   0 seeders     Added 2013-03-10 21:28:29

Stream torrent
Starting‥ You need BitLord! Get it from BitLord.com
To download or stream you need BitLord. Visit them at BitLord.com
General
Complete name                            : C:UsersPhr0stYDownloadsBlack Dynamite Crises form Christmas, or Dark Side of the Dark Side of the Moon .mp4
Format                                   : MPEG-4
Format profile                           : Base Media / Version 2
Codec ID                                 : mp42
File size                                : 291 MiB
Duration                                 : 22mn 36s
Overall bit rate                         : 1 802 Kbps
Encoded date                             : UTC 2013-03-10 22:27:35
Tagged date                              : UTC 2013-03-10 22:37:15
Video
ID                                       : 1
Format                                   : AVC
Format/Info                              : Advanced Video Codec
Format profile                           : High@L3.1
Format settings, CABAC                   : Yes
Format settings, ReFrames                : 4 frames
Codec ID                                 : avc1
Codec ID/Info                            : Advanced Video Coding
Duration                                 : 22mn 36s
Bit rate mode                            : Variable
Bit rate                                 : 1669 Kbps
Width                                    : 1280 pixels
Height                                   : 720 pixels
Display aspect ratio                     : 16:9
Frame rate mode                          : Variable
Frame rate                               : 29.086 fps
Original frame rate                      : 29.970 fps
Minimum frame rate                       : 3.753 fps
Maximum frame rate                       : 30.303 fps
Color space                              : YUV
Chroma subsampling                       : 4:2:0
Bit depth                                : 8 bits
Scan type                                : Progressive
Bits/(Pixel*Frame)                       : 0.062
Stream size                              : 270 MiB (93%)
Writing library                          : x264 core 130 r2273 b3065e6
Encoding settings                        : cabac=1 / ref=3 / deblock=1:0:0 / analyse=0x3:0x133 / me=hex / subme=7 / psy=1 / psy_rd=1.00:0.00 / mixed_ref=1 / me_range=16 / chroma_me=1 / trellis=1 / 8x8dct=1 / cqm=0 / deadzone=21,11 / fast_pskip=1 / chroma_qp_offset=-2 / threads=12 / lookahead_threads=2 / sliced_threads=0 / nr=0 / decimate=1 / interlaced=0 / bluray_compat=0 / constrained_intra=0 / bframes=3 / b_pyramid=2 / b_adapt=1 / b_bias=0 / direct=1 / weightb=1 / open_gop=0 / weightp=2 / keyint=250 / keyint_min=25 / scenecut=40 / intra_refresh=0 / rc_lookahead=40 / rc=crf / mbtree=1 / crf=20.0 / qcomp=0.60 / qpmin=0 / qpmax=69 / qpstep=4 / ip_ratio=1.40 / aq=1:1.00
Encoded date                             : UTC 2013-03-10 22:27:35
Tagged date                              : UTC 2013-03-10 22:37:15
Audio
ID                                       : 2
Format                                   : MPEG Audio
Format version                           : Version 1
Format profile                           : Layer 2
Codec ID                                 : 69
Duration                                 : 22mn 36s
Duration_FirstFrame                      : 133ms
Bit rate mode                            : Constant
Bit rate                                 : 128 Kbps
Channel(s)                               : 2 channels
Sampling rate                            : 48.0 KHz
Compression mode                         : Lossy
Stream size                              : 20.7 MiB (7%)
Encoded date                             : UTC 2013-03-10 22:27:35
Tagged date                              : UTC 2013-03-10 22:37:15
Black Dynamite Crises form Christmas, or Dark Side of the Dark Side of the Moon .mp4 305.474 MB
Gathering some info...

Register and log in Isohunt and see no captcha anymore!

4000 symbols left
Hash 3c4191dc7b36fb0ee380b061f67f60524e10c49b

Related torrents for "Black Dynamite Crises form Christmas, or Dark Side of the Dark Side of the Moon .mp4"