imdb
rating

8.5
The Walking Dead

The Walking Dead (2010)

Action & Adventure, Drama

Full description

the.walking.dead.s03e13.hdtv.x264-2hd.avi Verified

Size 461.085 MB   0 seeders     Added 2013-03-11 02:57:52

Stream torrent
Starting‥ You need BitLord! Get it from 1BitLord.com
To download or stream you need BitLord. Visit them at BitLord.com
							
Video
ID : 0
Format : AVC
Format/Info : Advanced Video Codec
Format profile : Main@L5.1
Format settings, CABAC : Yes
Format settings, ReFrames : 1 frame
Codec ID : H264
Duration : 43mn 12s
Bit rate : 1 219 Kbps
Width : 1 280 pixels
Height : 720 pixels
Display aspect ratio : 16:9
Frame rate : 30.000 fps
Color space : YUV
Chroma subsampling : 4:2:0
Bit depth : 8 bits
Scan type : Progressive
Bits/(Pixel*Frame) : 0.044
Stream size : 377 MiB (86%)
Audio
ID : 1
Format : MPEG Audio
Format version : Version 1
Format profile : Layer 3
Codec ID : 55
Codec ID/Hint : MP3
Duration : 43mn 12s
Bit rate mode : Constant
Bit rate : 192 Kbps
Channel(s) : 2 channels
Sampling rate : 44.1 KHz
Compression mode : Lossy
Stream size : 59.3 MiB (13%)
Alignment : Split accross interleaves
Interleave, duration : 34 ms (1.02 video frame)
Interleave, preload duration : 115 ms
Writing library : LAMELAME_MAJOR_VERSI
the.walking.dead.s03e13.hdtv.x264-2hd.avi 461.085 MB
Gathering some info...

Register and log in Isohunt and see no captcha anymore!

4000 symbols left
Hash 5a39d2cbfb04de696fb270373e2ddcd7c2688db6

Related torrents for "the.walking.dead.s03e13.hdtv.x264-2hd.avi"

Torrent search:

season 03 x264 hdtv episode 13