Dangerous Khiladi 2013 Hindi Movies HDDVD Rip XviD New Source Sample Included ~ rDX Verified

Size 738.566 MB   0 seeders     Added 2013-03-11 02:57:13

Stream torrent
Starting‥ You need BitLord! Get it from BitLord.com
To download or stream you need BitLord. Visit them at BitLord.com
							Dangerous Khiladi 2013 Hindi Movies HDDVD Rip XviD New Source Sample Included ~ rDXScreen Shots :http://myimghosting.serveftp.com/13/DangerousKhiladi.htmlhttp://myimghost.cwahi.net/DangerousKhiladi.html
Format : AVI
Format/Info : Audio Video Interleave
File size : 696 MiB
Duration : 2h 6mn
Overall bit rate mode : Variable
Overall bit rate : 770 Kbps
Writing library : MPlayer
Video
ID : 0
Format : MPEG-4 Visual
Format profile : Advanced Simple@L5
Format settings, BVOP : 2
Format settings, QPel : No
Format settings, GMC : No warppoints
Format settings, Matrix : Default (H.263)
Codec ID : XVID
Codec ID/Hint : XviD
Duration : 2h 6mn
Bit rate : 692 Kbps
Width : 640 pixels
Height : 272 pixels
Display aspect ratio : 2.35:1
Frame rate : 25.000 fps
Color space : YUV
Chroma subsampling : 4:2:0
Bit depth : 8 bits
Scan type : Progressive
Compression mode : Lossy
Bits/(Pixel*Frame) : 0.159
Stream size : 625 MiB (90%)
Writing library : XviD 1.2.1 (UTC 2008-12-04)
Audio
ID : 1
Format : MPEG Audio
Format version : Version 1
Format profile : Layer 3
Mode : Joint stereo
Mode extension : MS Stereo
Codec ID : 55
Codec ID/Hint : MP3
Duration : 2h 6mn
Bit rate mode : Variable
Bit rate : 67.9 Kbps
Channel(s) : 2 channels
Sampling rate : 32.0 KHz
Compression mode : Lossy
Stream size : 61.3 MiB (9%)
Alignment : Aligned on interleaves
Interleave, duration : 36 ms (0.90 video frame)
Interleave, preload duration : 560 ms
						
Dangerous Khiladi 2013 Hindi Movies HDDVD Rip XviD New Source Sample Included ~ rDX/Dangerous Khiladi 2013 Hindi Movies HDDVD Rip XviD New Source ~ rDX.avi 729.697 MB
Dangerous Khiladi 2013 Hindi Movies HDDVD Rip XviD New Source Sample Included ~ rDX/Sample ~ Dangerous Khiladi 2013 Hindi Movies HDDVD Rip XviD New Source ~ rDX.avi 8.869 MB
Gathering some info...

Register and log in Isohunt and see no captcha anymore!

4000 symbols left
Hash 03d784a2e03ffdf6ab755ec947f9853043819904