imdb
rating

8.2
Black Dynamite

Black Dynamite (2012)

Action, Animation, Comedy

Full description

Black Dynamite Honky Kong or White Apes Cant Hump [Phr0stY].mkv Verified

Size 307.04 MB   0 seeders     Added 2013-03-11 03:46:32

Stream torrent
Starting‥ You need BitLord! Get it from BitLord.com
To download or stream you need BitLord. Visit them at BitLord.com
General
Unique ID                                : 221965634396762306168285585138861320302 (0xA6FD06B473733BE29D4E43C241D5A86E)
Complete name                            : D:VideosAdult SwimBlack DynamiteBlack Dynamite Honky Kong or White Apes Cant Hump [Phr0stY].mkv
Format                                   : Matroska
Format version                           : Version 4 / Version 2
File size                                : 293 MiB
Duration                                 : 22mn 2s
Overall bit rate                         : 1 857 Kbps
Encoded date                             : UTC 2013-03-11 06:28:59
Writing application                      : mkvmerge v6.0.0 ('Coming Up For Air') built on Jan 20 2013 09:52:00
Writing library                          : libebml v1.3.0 + libmatroska v1.4.0

Video
ID                                       : 1
Format                                   : AVC
Format/Info                              : Advanced Video Codec
Format profile                           : High@L3.1
Format settings, CABAC                   : Yes
Format settings, ReFrames                : 4 frames
Codec ID                                 : V_MPEG4/ISO/AVC
Duration                                 : 22mn 2s
Bit rate                                 : 1692 Kbps
Width                                    : 1280 pixels
Height                                   : 720 pixels
Display aspect ratio                     : 16:9
Frame rate mode                          : Constant
Frame rate                               : 29.970 fps
Color space                              : YUV
Chroma subsampling                       : 4:2:0
Bit depth                                : 8 bits
Scan type                                : Progressive
Bits/(Pixel*Frame)                       : 0.061
Stream size                              : 267 MiB (91%)
Writing library                          : x264 core 130 r2273 b3065e6
Encoding settings                        : cabac=1 / ref=3 / deblock=1:0:0 / analyse=0x3:0x133 / me=hex / subme=7 / psy=1 / psy_rd=1.00:0.00 / mixed_ref=1 / me_range=16 / chroma_me=1 / trellis=1 / 8x8dct=1 / cqm=0 / deadzone=21,11 / fast_pskip=1 / chroma_qp_offset=-2 / threads=12 / lookahead_threads=2 / sliced_threads=0 / nr=0 / decimate=1 / interlaced=0 / bluray_compat=0 / constrained_intra=0 / bframes=3 / b_pyramid=2 / b_adapt=1 / b_bias=0 / direct=1 / weightb=1 / open_gop=0 / weightp=2 / keyint=250 / keyint_min=25 / scenecut=40 / intra_refresh=0 / rc_lookahead=40 / rc=crf / mbtree=1 / crf=20.0 / qcomp=0.60 / qpmin=0 / qpmax=69 / qpstep=4 / ip_ratio=1.40 / aq=1:1.00
Default                                  : Yes
Forced                                   : No

Audio
ID                                       : 2
Format                                   : MPEG Audio
Format version                           : Version 1
Format profile                           : Layer 2
Codec ID                                 : A_MPEG/L2
Codec ID/Hint                            : MP2
Duration                                 : 22mn 2s
Bit rate mode                            : Constant
Bit rate                                 : 128 Kbps
Channel(s)                               : 2 channels
Sampling rate                            : 48.0 KHz
Compression mode                         : Lossy
Stream size                              : 20.2 MiB (7%)
Default                                  : Yes
Forced                                   : No

		
Black Dynamite Honky Kong or White Apes Cant Hump [Phr0stY].mkv 307.04 MB
Gathering some info...

Register and log in Isohunt and see no captcha anymore!

4000 symbols left
Hash 3eb72c4c9a22fcbe0fd1bc5f1b0e6b6c6de6f556

Related torrents for "Black Dynamite Honky Kong or White Apes Cant Hump [Phr0stY].mkv"