imdb
rating

 
1985

1985 (2016)

Drama

Full description
quality   dvdrip x264 hd bd

Mohabbat.1985.1CD.Dvdrip.X264.AAC.RRG.DADA.DBBIANS.Com.mp4

Size 838.085 MB   0 seeders     Added 2013-03-11 05:31:02

Stream torrent
Starting‥ You need BitLord! Get it from 1BitLord.com
To download or stream you need BitLord. Visit them at BitLord.com

Mohabbat 1985 1CD Dvdrip X264 AAC [RRG DBB][DADA]

Mohabbat.1985.1CD.Dvdrip.X264.AAC.RRG.DADA.DBBIANS.Com.mp4



Cover -

 
image


Screens -



 
image.html 
image.html 
image.html 
image.html 
image.html 
image.html

Info - 




General
Mohabbat.1985.1CD.Dvdrip.X264.AAC.RRG.DADA.

Format : MP4Video
File size : 799 MiB
Duration : 2h 14mn
Overall bit rate : 832 Kbps


Video
Format : AVC
Format/Info : Advanced Video Codec
Format profile : Main@L3.1
Format settings, CABAC : Yes
Format settings, ReFrames : 3 frames
Muxing mode : Container profile=Unknown@3.1
Duration : 2h 14mn
Bit rate : 695 Kbps
Width : 854 pixels
Height : 480 pixels
Display aspect ratio : 16:9
Frame rate mode : Constant
Frame rate : 30.000 fps
Color space : YUV
Chroma subsampling : 40
Bit depth : 8 bits
Scan type : Progressive
Bits/(Pixel*Frame) : 0.056
Stream size : 667 MiB (83%)

Audio
Format : AAC
Format/Info : Advanced Audio Codec
Format version : Version 4
Format profile : LC
Format settings, SBR : No
Duration : 2h 14mn
Bit rate : 129 Kbps
Channel(s) : 2 channels
Channel positions : Front: L R
Sampling rate : 44.1 KHz
Bit depth : 16 bits
Stream size : 124 MiB (15%)

 
http://www.imdb.com/title/tt0089610/



About this movie

    Genres:
Indian Cinema, Drama, Romance
    Language:
Hindi
    Running time:
2:14:18
    Released:
Jun 14, 1985

Cast & Crew
Cast

    Anil Kapoor
    Vijayeta Pandit
    Amjad Khan
    Amrish Puri
    Shakti Kapoor

Directors

    Bapu

Producers

    Indra Kumar
    A. Thakeria



Super Hit Love Story Mohabbat (1985) Synopsis : Shekhar is in love with Pooja and would like to marry her. Pooja is the only daughter of Choudhury, the apple of his eye, and he agrees to get her married to Shekhar. Shekhar informs his parents, his dad, and his stepmother, and together they all go to Choudhury's house to finalize the marriage. At this point, Shekhar's stepmother asks for a hefty sum as dowry, which the Choudhury is unable to afford, and thus the proposal for marriage falls flat, with the Choudhury vowing that he will get his daughter married elsewhere. Shekhar is disgusted with his stepmother, and leaves home and comes to Choudhury and attempts to convince him to reconsider, but Choudhury is adamant, and goes ahead to plan his daughter's marriage with Atmaram, leaving both Shekar and Roopa devastated, and unsure what plan of action to adopt. 
		
Mohabbat.1985.1CD.Dvdrip.X264.AAC.RRG.DADA.DBBIANS.Com.mp4 838.085 MB
Gathering some info...

Register and log in Isohunt and see no captcha anymore!

4000 symbols left
Hash c687ef46ac849f0ab15aa29d65d7db923b5f933f

Related torrents for "Mohabbat.1985.1CD.Dvdrip.X264.AAC.RRG.DADA.DBBIANS.Com.mp4"

Torrent search:

dvdrip 1985 x264