Between

Between (2016)

Full description
quality   dvdrip hd

Between the Canals 2012 DVDRip XViD juggs

Size 740.579 MB   66 seeders     Added 2013-03-11 09:57:59

Stream torrent
Starting‥ You need BitLord! Get it from BitLord.com
To download or stream you need BitLord. Visit them at BitLord.com
							
Source : L-S
Format : AVI
Format/Info : Audio Video Interleave
File size : 699 MiB
Duration : 1h 12mn
Overall bit rate : 1 345 Kbps
Writing library : VirtualDub build 32842/release
Video
ID : 0
Format : MPEG-4 Visual
Format profile : Advanced Simple@L5
Format settings, BVOP : 4
Format settings, QPel : No
Format settings, GMC : No warppoints
Format settings, Matrix : Default (H.263)
Muxing mode : Packed bitstream
Codec ID : XVID
Codec ID/Hint : XviD
Duration : 1h 12mn
Bit rate : 1 208 Kbps
Width : 640 pixels
Height : 272 pixels
Display aspect ratio : 2.35:1
Frame rate : 25.000 fps
Color space : YUV
Chroma subsampling : 4:2:0
Bit depth : 8 bits
Scan type : Progressive
Compression mode : Lossy
Bits/(Pixel*Frame) : 0.278
Stream size : 627 MiB (90%)
Writing library : XviD 64
Audio
ID : 1
Format : MPEG Audio
Format version : Version 1
Format profile : Layer 3
Codec ID : 55
Codec ID/Hint : MP3
Duration : 1h 12mn
Bit rate mode : Constant
Bit rate : 128 Kbps
Channel(s) : 2 channels
Sampling rate : 44.1 KHz
Compression mode : Lossy
Stream size : 66.5 MiB (10%)
Alignment : Split accross interleaves
Interleave, duration : 40 ms (1.00 video frame)
Interleave, preload duration : 500 ms
Writing library : LAME3.99r
Encoding settings : -m s -V 4 -q 3 -lowpass 17 -b 128
Plot
Follows three small time criminals from Dublin's North Inner City as they each aspire to be somebody in a fast changing society.
[embed=youtube]http://www.youtube.com/watch?v=jsiyBKcBbiU[/embed]
						
Between the Canals 2012 DVDRip XViD juggs/Between the Canals 2012 DVDRip XViD juggs.avi 732.948 MB
Between the Canals 2012 DVDRip XViD juggs/Torrent Downloaded From ExtraTorrent.com.txt 339 B
Between the Canals 2012 DVDRip XViD juggs/sample.avi 7.631 MB
Gathering some info...

Register and log in Isohunt and see no captcha anymore!

4000 symbols left
Hash d6f00076a663331ccdec945a7b093edcac195622

Related torrents for "Between the Canals 2012 DVDRip XViD juggs"

Torrent search:

dvdrip 2012