Armin Van Buuren - Waiting For The Night (Ft. Fiora) 2013 M4A+MP4 (1080p) x264 [VX] [P2PDL]

Size 43.665 MB   0 seeders     Added 2013-03-11 15:01:37

Stream torrent
Starting‥ You need BitLord! Get it from BitLord.com
To download or stream you need BitLord. Visit them at BitLord.com
Release Title: Armin Van Buuren Feat. Fiora - Waiting For The Night (2013)


                                              1080p Full HD MP4 Video
                                                        +
                                              128 Kbps/VBR M4A Audio

General
Complete name                  : Armin Van Buuren Feat. Fiora - Waiting For The Night (1080p) x264 [VX] [P2PDL].mp4
Format                         : MPEG-4
Format profile                 : Base Media / Version 2
Codec ID                       : mp42
File size                      : 37.3 MiB
Duration                       : 3mn 17s
Overall bit rate mode          : Variable
Overall bit rate               : 1 583 Kbps

Video
Format                         : AVC
Width                          : 1 920 pixels
Height                         : 1 080 pixels
Display aspect ratio           : 16:9
Frame rate mode                : Constant
Frame rate                     : 25.000 fps
Color space                    : YUV
Chroma subsampling             : 4:2:0
Bit depth                      : 8 bits
Scan type                      : Progressive
Bits/(Pixel*Frame)             : 0.028
Stream size                    : 34.3 MiB (92%)
Writing library                : x264 core 129

Audio
Format                         : AAC
Duration                       : 3mn 17s
Bit rate mode                  : Variable
Bit rate                       : 123 Kbps
Channel(s)                     : 2 channels
Channel positions              : Front: L R
Sampling rate                  : 48.0 KHz
Stream size                    : 2.90 MiB (8%)

Subtitles                      : No


		
Armin Van Buuren - Waiting For The Night (Ft. Fiora) 2013 M4A+MP4 (1080p) x264 [VX] [P2PDL]/Armin Van Buuren Feat. Fiora - Waiting For The Night (1080p) x264 [VX] [P2PDL].mp4 39.154 MB
Armin Van Buuren - Waiting For The Night (Ft. Fiora) 2013 M4A+MP4 (1080p) x264 [VX] [P2PDL]/01 Armin Van Buuren Feat. Fiora - Waiting For The Night (Radio Edit).m4a 4.414 MB
Armin Van Buuren - Waiting For The Night (Ft. Fiora) 2013 M4A+MP4 (1080p) x264 [VX] [P2PDL]/Cover.jpg 93.954 KB
Gathering some info...

Register and log in Isohunt and see no captcha anymore!

4000 symbols left
Hash a755f6561409d626e20da90ad7dcc338c3ebf0d7

Related torrents for "Armin Van Buuren - Waiting For The Night (Ft. Fiora) 2013 M4A+MP4 (1080p) x264 [VX] [P2PDL]"

Torrent search:

m4a 2013