imdb
rating

7.6
The Crow

The Crow (1994)

Action, Fantasy, Thriller

Full description
quality   dvdrip h264 hd bd dvdr x264 fullhd

The Crow (1994)-alE13

Size 3.689 GB   0 seeders     Added 2013-03-11 15:39:23

Stream torrent
Starting‥ You need BitLord! Get it from 1BitLord.com
To download or stream you need BitLord. Visit them at BitLord.com
							The file containing - sample!!!
Plik zawiera - sample !!!
produkcja: USA
gatunek: Fantasy , Thriller
data premiery: 1994-11-08 (Polska), 1994-05-11 (Świat)
reżyseria Alex Proyas
zdjęcia Dariusz Wolski
muzyka Trent Reznor , Graeme Revell
scenariusz David J. Schow , John Shirley
czas: 102
Opis:
A man brutally murdered comes back to life as an undead avenger of 
his and his fiancée's murder. 
Brutalnie zamordowana gwiazda rocka Eric Draven po roku powraca do życia, 
by pod okiem tajemniczego kruka dokonać zemsty na swoich prześladowcach. 
Obdarzony umiejętnościami paranormalnymi i nadludzką siłą, Eric kolejno 
likwiduje członków gangu nieświadomych czekającego ich losu.
Obsada:
Brandon Lee .... Eric Draven
Rochelle Davis .... Sarah
Ernie Hudson .... Sierż. Albrecht
Michael Wincott .... Top Dollar
Dane Techniczne:
The Crow (1994)-alE13.mkv
Format : Matroska
Format version : Version 4 / Version 2
File size : 3.40 GiB
Duration : 1h 37mn
Overall bit rate : 4 995 Kbps
Movie name : The Crow (1994)-alE13
Encoded date : UTC 2013-03-11 11:20:03
Writing application : mkvmerge v6.1.0 
Writing library : libebml v1.3.0 + libmatroska v1.4.0
Video
ID : 1
Format : AVC
Format/Info : Advanced Video Codec
Format profile : Main@L4.0
Format settings, CABAC : Yes
Format settings, ReFrames : 2 frames
Codec ID : V_MPEG4/ISO/AVC
Duration : 1h 37mn
Bit rate : 3 500 Kbps
Width : 1 920 pixels
Height : 1 080 pixels
Display aspect ratio : 16:9
Frame rate mode : Constant
Frame rate : 25.000 fps
Color space : YUV
Chroma subsampling : 4:2:0
Bit depth : 8 bits
Scan type : Progressive
Bits/(Pixel*Frame) : 0.068
Stream size : 2.31 GiB (68%)
Writing library : x264 core 112 r1834 a51816a
Audio
ID : 2
Format : DTS
Format/Info : Digital Theater Systems
Mode : 16
Format settings, Endianness : Big
Codec ID : A_DTS
Duration : 1h 37mn
Bit rate mode : Constant
Bit rate : 1 509 Kbps
Channel(s) : 6 channels
Channel positions : Front: L C R, Side: L R, LFE
Sampling rate : 48.0 KHz
Bit depth : 16 bits
Compression mode : Lossy
Stream size : 1.03 GiB (30%)
Language : English
Text
ID : 3
Format : VobSub
Muxing mode : zlib
Codec ID : S_VOBSUB
Codec ID/Info : The same subtitle format used on DVDs
Title : The Crow (1994)-alE13
Language : Polish
						
The Crow (1994)-alE13/Sub/The Crow (1994)-alE13_pl.sub 4.34 MB
The Crow (1994)-alE13/Sub/The Crow (1994)-alE13_pl.srt 49.963 KB
The Crow (1994)-alE13/Sub/The Crow (1994)-alE13_pl.idx 33.78 KB
Gathering some info...

Register and log in Isohunt and see no captcha anymore!

4000 symbols left
Hash bc77a0913bae6f8045bdca6db71c8286b848bbfb

Related torrents for "The Crow (1994)-alE13"

Torrent search:

1994