imdb
rating

6.4
Oz: The Great and Powerful

Oz: The Great and Powerful (2013)

Adventure, Fantasy, Family

Full description

Oz the Great and Powerful (2013) TS x264 AAC - SSDD

Size 577.68 MB   0 seeders     Added 2013-03-11 17:03:01

Stream torrent
Starting‥ You need BitLord! Get it from BitLord.com
To download or stream you need BitLord. Visit them at BitLord.com
Poster: 
image

Info:

IMDB Link - http://www.imdb.com/title/tt1623205/

Source - Oz the Great and Powerful 2013 TS XviD MP3 - MiNiSTRY (Thumbs Up + Respect)

General
Complete name : Oz the Great and Powerful 2013 TS x264-SSDD.mp4
Format : MPEG-4
Format profile : Base Media
Codec ID : isom
File size : 550 MiB
Duration : 2h 4mn
Overall bit rate mode : Variable
Overall bit rate : 620 Kbps

Video
ID : 1
Format : AVC
Format/Info : Advanced Video Codec
Format profile : High@L4.1
Format settings, CABAC : Yes
Format settings, ReFrames : 4 frames
Codec ID : avc1
Codec ID/Info : Advanced Video Coding
Duration : 2h 4mn
Bit rate : 566 Kbps
Maximum bit rate : 2 305 Kbps
Width : 704 pixels
Height : 272 pixels
Display aspect ratio : 2.588
Frame rate mode : Constant
Frame rate : 25.000 fps
Color space : YUV
Chroma subsampling : 4:2:0
Bit depth : 8 bits
Scan type : Progressive
Bits/(Pixel*Frame) : 0.118
Stream size : 503 MiB (91%)
Writing library : x264 core 129 r2245 bc13772

Audio
ID : 2
Format : AAC
Format/Info : Advanced Audio Codec
Format profile : LC
Codec ID : 40
Duration : 2h 4mn
Bit rate mode : Variable
Bit rate : 48.0 Kbps
Maximum bit rate : 55.2 Kbps
Channel(s) : 2 channels
Channel positions : Front: L R
Sampling rate : 48.0 KHz
Compression mode : Lossy
Stream size : 44.4 MiB (8%)


Screens: 
image 
image 
image 
image



		
Oz the Great and Powerful (2013) TS x264 AAC - SSDD/Oz the Great and Powerful (2013) TS x264 AAC - SSDD.mp4 577.68 MB
Oz the Great and Powerful (2013) TS x264 AAC - SSDD/Torrent downloaded from AhaShare.com.txt 65 B
Oz the Great and Powerful (2013) TS x264 AAC - SSDD/readme.txt 118 B
Gathering some info...

Register and log in Isohunt and see no captcha anymore!

4000 symbols left
Hash c614a0384ab7f8f057444bbc282e872d30706269

Related torrents for "Oz the Great and Powerful (2013) TS x264 AAC - SSDD"

Torrent search:

telesync x264 2013