imdb
rating

8.6
Vikings

Vikings (2013)

Drama, Action & Adventure

Full description

Vikings S01E03 Dispossessed (720X400)2.avi

Size 248.74 MB   0 seeders     Added 2013-03-11 20:57:28

Stream torrent
Starting‥ You need BitLord! Get it from BitLord.com
To download or stream you need BitLord. Visit them at BitLord.com
							General
Complete name : Vikings S01E03 Dispossessed (720X400).avi
Format : AVI
Format/Info : Audio Video Interleave
File size : 237 MiB
Duration : 44mn 25s
Overall bit rate : 745 Kbps
Video
ID : 0
Format : AVC
Format/Info : Advanced Video Codec
Format profile : High@L3.0
Format settings, CABAC : Yes
Format settings, ReFrames : 5 frames
Codec ID : H264
Duration : 44mn 25s
Bit rate : 607 Kbps
Width : 720 pixels
Height : 400 pixels
Display aspect ratio : 16:9
Frame rate mode : Variable
Frame rate : 23.976 fps
Color space : YUV
Chroma subsampling : 4:2:0
Bit depth : 8 bits
Scan type : Progressive
Bits/(Pixel*Frame) : 0.088
Stream size : 193 MiB (82%)
Audio
ID : 1
Format : MPEG Audio
Format version : Version 1
Format profile : Layer 3
Codec ID : 55
Codec ID/Hint : MP3
Duration : 44mn 25s
Bit rate mode : Constant
Bit rate : 128 Kbps
Channel(s) : 2 channels
Sampling rate : 44.1 KHz
Compression mode : Lossy
Stream size : 40.7 MiB (17%)
Alignment : Split accross interleaves
Interleave, duration : 42 ms (1.00 video frame)
Interleave, preload duration : 18 ms
Writing library : LAMELAME_MAJOR_VERSI
Vikings S01E03 Dispossessed (720X400)2.avi/Vikings S01E03 Dispossessed (720X400).avi 248.197 MB
Vikings S01E03 Dispossessed (720X400)2.avi/vlcsnap-2013-03-11-15h26m47s149.png 280.03 KB
Vikings S01E03 Dispossessed (720X400)2.avi/vlcsnap-2013-03-11-15h26m10s26.png 261.006 KB
Gathering some info...

Register and log in Isohunt and see no captcha anymore!

4000 symbols left
Hash a3898b66d0f6d36475fb83da8b6a96a39b6ff1d1

Related torrents for "Vikings S01E03 Dispossessed (720X400)2.avi"

Torrent search:

season 01 episode 03 2013