Mattie.Season.1.Complete.RTE.DVDrip.DeViL303

Size 2.712 GB   0 seeders     Added 2013-03-11 22:30:43

Stream torrent
Starting‥ You need BitLord! Get it from BitLord.com
To download or stream you need BitLord. Visit them at BitLord.com
Mattie Series 1 Complete [RTE Ireland] DVDrip Xvid DeViL303

This is just a average quality Xvid DVDrip, I will be doing a better quality x264 rip soon...


RTEDVD139

After years as a country cop, Mattie (Pat Shortt) is teamed up with feisty female detective Sharon Kelly (Lesley Conroy) and struggles to adapt to the rough and tumble of city policing, but always manages to get his man, despite many comic misadventures.

Adding to his discomfort is the ridicule of smug fellow detectives, Tom and Felix, played by Alvaro Lucchesi and Sean McDonagh and the watchful eye of Superintendent O'Mara, played by Joe Taylor, who has his other eye on promotion.

Added to the mix is Mattie's demanding Mother, her friend Sister Philomena, his sophisticated flat mate Ross, and a rogues gallery of petty criminals, prospective girlfriends and giant chickens.
Programme One

A slip-up by Mattie means that he and Sharon miss out on the top job of guarding the minister. Consigned to rounding up two giant man-chickens, copious quantities of caffeine provide Mattie with the unexpected burst of energy needed to tackle the mystery of the cream cake and save the egg threatened minister.

Programme Two

A courtroom showdown sees Mattie out-wit his ex-girlfriend's solicitor only to draw the ire of the Super who begins to plot against him.

Mattie gets a new flat-mate and befriends a petty thief before stepping over the line while trying to sort out a dodgy mechanic.

Is this the Super's chance to send our hapless detective packing or will his partner Sharon save the day?

Programme Three

Mattie and Sharon are dispatched to deal with a particularly persistent shoplifter. Meanwhile, Mattie's interfering mother sets him up with a blind date, while Tom and Felix interview a man with a penchant for insulting the police. Mattie goes undercover with disastrous consequences for his fledgling love-life.

Programme Four

The death of an elderly business man looks like an open and shut case but Mattie has his doubts. To Mattie's (and especially his detective partner Sharon's) embarrassment, new flat-mate Ross proves to be quite the ladies man about town.

An exhibition of arty photos by two forensic snappers takes his mind off domestic life. Finally, a snoop around the dead man's furniture proves instrumental in proving Mattie's suspicions of foul play to be right on the money.

etc


File Info:
Complete name                            : Mattie.S01E01.The.Pilot.RTE.DVDrip.DeViL303.avi
Format                                   : AVI
Format/Info                              : Audio Video Interleave
File size                                : 377 MiB
Duration                                 : 23mn 57s
Overall bit rate                         : 2 198 Kbps
Movie name                               : MATTIE_SCN.Title2.DVDRip
Writing application                      : Lavf53.21.0
Original source form/Name                : MATTIE_SCN

Video
ID                                       : 0
Format                                   : MPEG-4 Visual
Format profile                           : Advanced Simple@L5
Format settings, BVOP                    : 2
Format settings, QPel                    : No
Format settings, GMC                     : No warppoints
Format settings, Matrix                  : Default (H.263)
Muxing mode                              : Packed bitstream
Codec ID                                 : XVID
Codec ID/Hint                            : XviD
Duration                                 : 23mn 57s
Bit rate                                 : 1 994 Kbps
Width                                    : 720 pixels
Height                                   : 404 pixels
Display aspect ratio                     : 16:9
Frame rate                               : 29.970 fps
Color space                              : YUV
Chroma subsampling                       : 4:2:0
Bit depth                                : 8 bits
Scan type                                : Progressive
Compression mode                         : Lossy
Bits/(Pixel*Frame)                       : 0.229
Stream size                              : 342 MiB (91%)
Writing library                          : XviD 1.2.1 (UTC 2008-12-04)

Audio
ID                                       : 1
Format                                   : AC-3
Format/Info                              : Audio Coding 3
Mode extension                           : CM (complete main)
Format settings, Endianness              : Big
Codec ID                                 : 2000
Duration                                 : 23mn 57s
Bit rate mode                            : Constant
Bit rate                                 : 192 Kbps
Channel(s)                               : 2 channels
Channel positions                        : Front: L R
Sampling rate                            : 48.0 KHz
Bit depth                                : 16 bits
Compression mode                         : Lossy
Stream size                              : 32.9 MiB (9%)
Alignment                                : Aligned on interleaves
Interleave, duration                     : 32 ms (0.96 video frame)

		
Mattie.Season.1.Complete.RTE.DVDrip.DeViL303/DVD.Extras/Mattie.S01.Extras.Behind.the.Scenes.Docu.RTE.DVDrip.DeViL303.avi 240.799 MB
Mattie.Season.1.Complete.RTE.DVDrip.DeViL303/DVD.Extras/Mattie.S01.Extras.Bonus.Bloopers.1.RTE.DVDrip.DeViL303.avi 95.66 MB
Mattie.Season.1.Complete.RTE.DVDrip.DeViL303/DVD.Extras/Mattie.S01.Extras.Slideshow.RTE.DVDrip.DeViL303.avi 41.698 MB
Gathering some info...

Register and log in Isohunt and see no captcha anymore!

4000 symbols left
Hash 4e78faba06ccfdb974b286a3ba548421d65c5cb7

Related torrents for "Mattie.Season.1.Complete.RTE.DVDrip.DeViL303"

Torrent search:

dvdrip