imdb
rating

6.4
Oz: The Great and Powerful

Oz: The Great and Powerful (2013)

Adventure, Fantasy, Family

Full description

[ www.Speed.Cd ] - Oz the Great and Powerful 2013 TS XviD Feel-Free Verified

Size 1.479 GB   0 seeders     Added 2013-03-12 00:32:44

Stream torrent
Starting‥ You need BitLord! Get it from BitLord.com
To download or stream you need BitLord. Visit them at BitLord.com
- 
http://www.Speed.Cd
 
http://www.Speed.Cd       the fast  and The Hottest Private Tracker on the net

Please Seed back to make the speed Faster!!
 ............ NFO .............
-[img]image[/img]
[img]image[/img]


Genre:Adventure | Family | Fantasy
Language:English
IMDb:http://www.imdb.com/title/tt1623205/
Source:Oz.Velikij.iUjasnij.2013.D.TS/MiNiSTRY Thanks
Encoder:Tony

Format                                   : AVI
Format/Info                              : Audio Video Interleave
File size                                : 1.38 GiB
Duration                                 : 2h 4mn
Overall bit rate                         : 1 586 Kbps

Video
ID                                       : 0
Format                                   : MPEG-4 Visual
Format profile                           : Advanced Simple@L5
Format settings, BVOP                    : 1
Format settings, QPel                    : No
Format settings, GMC                     : No warppoints
Format settings, Matrix                  : Default (H.263)
Codec ID                                 : XVID
Codec ID/Hint                            : XviD
Duration                                 : 2h 4mn
Bit rate                                 : 1 417 Kbps
Width                                    : 640 pixels
Height                                   : 248 pixels
Display aspect ratio                     : 2.581
Frame rate                               : 25.000 fps
Color space                              : YUV
Chroma subsampling                       : 4:2:0
Bit depth                                : 8 bits
Scan type                                : Progressive
Compression mode                         : Lossy
Bits/(Pixel*Frame)                       : 0.357
Stream size                              : 1.23 GiB (89%)
Writing library                          : XviD 1.2.1 (UTC 2008-12-04)

Audio
ID                                       : 1
Format                                   : AC-3
Format/Info                              : Audio Coding 3
Mode extension                           : CM (complete main)
Codec ID                                 : 2000
Duration                                 : 2h 4mn
Bit rate mode                            : Constant
Bit rate                                 : 160 Kbps
Channel(s)                               : 2 channels
Channel positions                        : Front: L R
Sampling rate                            : 48.0 KHz
Bit depth                                : 16 bits
Compression mode                         : Lossy
Stream size                              : 142 MiB (10%)
Alignment                                : Aligned on interleaves
Interleave, duration                     : 40 ms (1.00 video frame)
Interleave, preload duration             : 512 ms

    
Plot:
  A small-time magician arrives in an enchanted land and is forced to decide if he will be a good man or a great one. 


Greets:
 CRYS,MiNiSTRY,INSPiRAL,IMAGINE,LKRG,ADTRG,FXG,3Li,FLAWL3SS,CrEwSaDe,TA,iLLUSiON,EMBER,HOPE,GooN,BBnRG,NOGRP,ETRG,BHRG,iLLUMiNATi,MiSTERE.ViSiON,DTRG SAFCuk009,LU,TheFalcon007,MYSTiC,PrisM,Noir,WBZ,LAP,Rx,Kingdom,SAFCuk009+Fabreezy,HDLiTE,TWiZTED,ETRG.ELEKTRI4KA,MAGNAT,CM8
                And to all the other p2p grps past and present		
[ www.Speed.Cd ] - Oz the Great and Powerful 2013 TS XviD Feel-Free/65049659896153892836.jpg 133.955 KB
[ www.Speed.Cd ] - Oz the Great and Powerful 2013 TS XviD Feel-Free/Oz the Great and Powerful 2013 TS XviD Feel-Free.avi 1.478 GB
[ www.Speed.Cd ] - Oz the Great and Powerful 2013 TS XviD Feel-Free/Oz the Great and Powerful 2013 TS XviD Feel-Free.nfo 3.26 KB
Gathering some info...

Register and log in Isohunt and see no captcha anymore!

4000 symbols left
Hash 6e40c541a42cefddd8e250fdf6b4e7d03d910a54

Related torrents for "[ www.Speed.Cd ] - Oz the Great and Powerful 2013 TS XviD Feel-Free"

Torrent search:

telesync 2013