imdb
rating

6.4
Oz: The Great and Powerful

Oz: The Great and Powerful (2013)

Adventure, Fantasy, Family

Full description

Oz the Great and Powerful 2013 TS XviD AC3 - TODE Verified

Size 731.201 MB   112 seeders     Added 2013-03-12 03:38:13

Stream torrent
Starting‥ You need BitLord! Get it from BitLord.com
To download or stream you need BitLord. Visit them at BitLord.com
							http://www.imdb.com/title/tt1623205/
A small-time magician arrives in an enchanted land and is forced to decide if he will be a good man or a great one. 
Director:
 Sam Raimi
Writers:
 Mitchell Kapner (screenplay), David Lindsay-Abaire (screenplay)
 James Franco, Michelle Williams, Rachel Weisz
Genres:
 Adventure | Family | Fantasy 
Country:
USA
Language:
English 
Format : AVI
Format/Info : Audio Video Interleave
File size : 697 MiB
Duration : 2h 4mn
Overall bit rate : 785 Kbps
Writing application : Lavf54.59.103
Video
ID : 0
Format : MPEG-4 Visual
Format profile : Simple@L3
Format settings, BVOP : No
Format settings, QPel : No
Format settings, GMC : No warppoints
Format settings, Matrix : Default (H.263)
Codec ID : XVID
Codec ID/Hint : XviD
Duration : 2h 4mn
Bit rate : 710 Kbps
Width : 640 pixels
Height : 240 pixels
Display aspect ratio : 2.588
Frame rate : 25.000 fps
Color space : YUV
Chroma subsampling : 4:2:0
Bit depth : 8 bits
Scan type : Progressive
Compression mode : Lossy
Bits/(Pixel*Frame) : 0.185
Stream size : 631 MiB (90%)
Writing library : XviD 64
Audio
ID : 1
Format : AC-3
Format/Info : Audio Coding 3
Mode extension : CM (complete main)
Format settings, Endianness : Big
Codec ID : 2000
Duration : 2h 4mn
Bit rate mode : Constant
Bit rate : 64.0 Kbps
Channel(s) : 2 channels
Channel positions : Front: L R
Sampling rate : 48.0 KHz
Bit depth : 16 bits
Compression mode : Lossy
Stream size : 56.9 MiB (8%)
Alignment : Aligned on interleaves
Interleave, duration : 32 ms (0.80 video frame)
Oz the Great and Powerful 2013 TS XviD AC3 - TODE/nfo.txt 2.482 KB
Oz the Great and Powerful 2013 TS XviD AC3 - TODE/Oz the Great and Powerful 2013 TS XviD AC3 - TODE.avi 731.198 MB
Gathering some info...

Register and log in Isohunt and see no captcha anymore!

4000 symbols left
Hash eeeba4e199439a7a2c875c1538ef8c1be563463b

Related torrents for "Oz the Great and Powerful 2013 TS XviD AC3 - TODE"

Torrent search:

telesync 2013