Gangs of Wasseypur II

Gangs of Wasseypur II (2012)

Action, Crime, Drama, Thriller

Full description
quality   dvdrip hd bd screener x264 fullhd

Gangs Of Wasseypur 2012 BRRip 720p x264 Hindi ESubs - ViZNU [P2PDL]

Size 1.011 GB   61 seeders     Added 2013-03-12 07:00:51

Stream torrent
Starting‥ You need BitLord! Get it from BitLord.com
To download or stream you need BitLord. Visit them at BitLord.com
_________________________  Visit us at _________________________
  
http://p2pdl.com  ____________________________  http://p2pdl.com

Gangs of Wasseypur 2012 BRRip 720p x264 Hindi ESubs - ViZNU

Genre: Action | Crime | Drama | History | Thriller
Plot: Shahid Khan's vow to get his father's honor 
back turns him into the most feared man in the 
Indian town of Wasseypu.
drug-related murders and is forced to do the gang's bidding.
Director: Anurag Kashyap
Stars: Manoj Bajpayee, Richa Chadda, Nawazuddin Siddiqui
Rated: PG 13

Info: 
http://www.imdb.com/title/tt1954470/

General
Complete name                  : Gangs of Wasseypur 2012 BRRip 720p x264 Hindi ESubs - ViZNU.mp4
Format                         : MPEG-4
Format profile                 : Base Media
Codec ID                       : isom
File size                      : 953 MiB
Duration                       : 2h 41mn
Overall bit rate mode          : Variable
Overall bit rate               : 826 Kbps

Video
Format                         : AVC
Format/Info                    : Advanced Video Codec
Format profile                 : High 10@L4.1
Codec ID                       : avc1
Codec ID/Info                  : Advanced Video Coding
Bit rate                       : 783 Kbps
Width                          : 1 280 pixels
Height                         : 544 pixels
Display aspect ratio           : 2.35:1
Frame rate mode                : Constant
Frame rate                     : 24.000 fps
Bit depth                      : 10 bits
Scan type                      : Progressive
Bits/(Pixel*Frame)             : 0.047
Stream size                    : 903 MiB (95%)
Writing library                : x264 core 129 r2245 bc13772

Audio
Format                         : AAC
Format/Info                    : Advanced Audio Codec
Duration                       : 2h 41mn
Bit rate mode                  : Variable
Bit rate                       : 40.0 Kbps
Channel(s)                     : 2 channels
Channel positions              : Front: L R
Sampling rate                  : 44.1 KHz / 22.05 KHz
Compression mode               : Lossy
Stream size                    : 46.2 MiB (5%)
Language                       : Hindi

Subtitle                       : Yes (English)

Screens: 
image 
image 
image 
image

Thumbs: 
image

----------------------------------------------------------------------------------------------------
Encoded using revolutionary 10bit encoding, which enables us to provide you more crispier 
and sharper images at small sizes, just make sure you follow our instructions without a fault.
Recommend to you to use latest version of VLC player. Install K-Lite Codec Pack or shark007 codecs
in case of any kind of problem in playback (For non-VLC Media Player users). Alternatively, install
Core AVC codecs, the fastest decoder that there is coupled with Community Center Codec Pack and play
on Windows Media Player Classic. Check sample to be sure.
Enjoy!

Greets to: VYTO, a2zRG, MusiK_KinG, Kuroyukihime, TorDigger, Ash968, StyLishSaLH, Masta and staff members at
ExtraTorrent, TPB, H33T, KAT, 1337x, PublicHD, Ahashare, BTScene,LimeTorrents, TorrentMafia,
P2PDL, and all others.

Encoder Notes: Encoder Notes: Looking For Early Access To Anything You Can Provide DVDScr, R5, DVDR, BluRay, Direct
Audio, Music Releases and Seedboxes. We require dedicated servers, so as to do more and fast releases of movies.
If You Got anything to offer contact us at "prg@hush.com".		
Gangs Of Wasseypur 2012 BRRip 720p x264 Hindi ESubs - ViZNU [P2PDL]/Gangs of Wasseypur 2012 BRRip 720p x264 Hindi ESubs - ViZNU/Gangs of Wasseypur 2012 BRRip 720p x264 Hindi ESubs - ViZNU.mp4 999.174 MB
Gangs Of Wasseypur 2012 BRRip 720p x264 Hindi ESubs - ViZNU [P2PDL]/Sample.mp4 11.207 MB
Gangs Of Wasseypur 2012 BRRip 720p x264 Hindi ESubs - ViZNU [P2PDL]/Gangs of Wasseypur 2012 BRRip 720p x264 Hindi ESubs - ViZNU/Gangs of Wasseypur 2012 BRRip 720p x264 Hindi ESubs - ViZNU.srt 221.524 KB
Gathering some info...

Register and log in Isohunt and see no captcha anymore!

4000 symbols left
Hash 9c9bf79ad2cb7d88a4c963a8ae2bb06745142f64

Related torrents for "Gangs Of Wasseypur 2012 BRRip 720p x264 Hindi ESubs - ViZNU [P2PDL]"

Torrent search:

x264 hd hindi 2012 bd