Digital Musical Rays Vol 3 2011 BluRay 720p x264 AC3 5.1 ESubs Team XDN WwW.XtremeDoN.CoM

Size 2.412 GB   0 seeders     Added 2013-03-12 08:58:37

Stream torrent
Starting‥ You need BitLord! Get it from BitLord.com
To download or stream you need BitLord. Visit them at BitLord.com
							Digital Musical Rays Vol 3 2011 BluRay 720p x264 AC3 5.1 ESubs No Watermarks Team XDNVisit Here For More Tamil Releases : http://www.xtremedon.com/forum.phpSONGS LIST01 Vinnai Kaapan [Kaavalan]
02 Amali Thumali [KO]
03 Naan Aalana [Siddhu+2]
04 Nangai Nilaavin [Engeyum Kadhal]
05 Yaaradhu [Kaavalan]
06 Ennamo [KO]
07 Yaar Indha [Boss a Baskaran]
08 Kannitheevu Ponna [Yutham Sei]
09 Iragai Poole [Naan Mahan alla]
10 Mynaa Mynaa [Mynaa]
11 Thikki Thikki [Nagaram]
12 Poovey Poovey [Siddhu+2]
13 Nenjil Nenjil [Engeyum Kadhal]
14 Pattampoochi [Kaavalan]
15 Venpaniye [KO]
16 Kaiya Pdui [Mynaa] 
17 Pudicha Puiyan [Nagaram]
18 Thathi Thaavum [Boss A Baskaran]
19 Theeyila [Engeyum Kadhal] 
20 Gundu Chattikkule [Siddhu+2] 
21 Step Step [Kaavalan] 
22 Aiyley Aiyley [Boss A Baskaran]
23 Engeyum Kadhal [Engeyum Kadhal]
24 Vaa Vaa Nilavaa [Naan Mahan Alla]
25 En Peru Krishnaveni [Nagaram]
26 Sada Sada [Kaavalan]
27 Aga Naga [KO] 
28 Ada Boss Boss [Boss A Baskaran] 
29 Neeyum Naanum [Mynaa]
30 Lolita [Engeyum Kadhal]
31 Money Money [Siddhu+2] 
32 Jungu Chikka [Mynaa]
33 Dhimu Dhimu [Engeyum Kadhal]
34 Onnukkonnu [Nandalala]
35 A Plus [Boss A Baskaran]
36 Kichu Kichu [Mynaa] 
37 Gala Gala [KO]MEDIA INFOGENERALFile size : 2.25 GiB
Duration : 2h 49mn
Overall bit rate : 1 902 KbpsVIDEOBit rate : 1 740 Kbps
Width : 1 280 pixels
Height : 544 pixels
Frame rate : 23.976 fps
Stream size : 2.01 GiB (90%)AUDIOCodec ID : A_AC3
Bit rate : 160 Kbps
Channel(s) : 6 channels
Stream size : 194 MiB (8%)SCREENSHOTS
						
Digital Musical Rays Vol 3 2011 BluRay 720p x264 AC3 5.1 ESubs Team XDN WwW.XtremeDoN.CoM/Digital Musical Rays Vol 3 2011 BluRay 720p x264 AC3 5.1 ESubs Team XDN WwW.XtremeDoN.CoM.mkv 2.412 GB
Digital Musical Rays Vol 3 2011 BluRay 720p x264 AC3 5.1 ESubs Team XDN WwW.XtremeDoN.CoM/WwW.XtremeDoN.CoM.txt 378 B
Gathering some info...

Register and log in Isohunt and see no captcha anymore!

4000 symbols left
Hash c9ccb320fd566e545bfaa06c76e2559a9f23cec9

Related torrents for "Digital Musical Rays Vol 3 2011 BluRay 720p x264 AC3 5.1 ESubs Team XDN WwW.XtremeDoN.CoM"

Torrent search:

x264 hd bd 2011