Login 2013 Hindi Movies HDDVD Rip XviD Sample Included ~ rDX

Size 735.803 MB   0 seeders     Added 2013-03-12 09:58:29

Stream torrent
Starting‚Ä• You need BitLord! Get it from BitLord.com
To download or stream you need BitLord. Visit them at BitLord.com
							Login 2013 Hindi Movies HDDVD Rip XviD Sample Included ~ rDXScreen Shots :http://myimghosting.serveftp.com/13/Login.htmlhttp://myimghost.cwahi.net/Login.html
Format : AVI
Format/Info : Audio Video Interleave
File size : 691 MiB
Duration : 1h 42mn
Overall bit rate mode : Variable
Overall bit rate : 942 Kbps
Writing library : MPlayer
Video
ID : 0
Format : MPEG-4 Visual
Format profile : Advanced Simple@L5
Format settings, BVOP : 1
Format settings, QPel : No
Format settings, GMC : No warppoints
Format settings, Matrix : Custom
Codec ID : XVID
Codec ID/Hint : XviD
Duration : 1h 42mn
Bit rate : 807 Kbps
Width : 672 pixels
Height : 272 pixels
Display aspect ratio : 2.471
Frame rate : 24.000 fps
Color space : YUV
Chroma subsampling : 4:2:0
Bit depth : 8 bits
Scan type : Progressive
Compression mode : Lossy
Bits/(Pixel*Frame) : 0.184
Stream size : 592 MiB (86%)
Writing library : XviD 1.2.1 (UTC 2008-12-04)
Audio
ID : 1
Format : MPEG Audio
Format version : Version 1
Format profile : Layer 3
Mode : Joint stereo
Mode extension : MS Stereo
Codec ID : 55
Codec ID/Hint : MP3
Duration : 1h 42mn
Bit rate mode : Variable
Bit rate : 121 Kbps
Channel(s) : 2 channels
Sampling rate : 48.0 KHz
Compression mode : Lossy
Stream size : 89.0 MiB (13%)
Alignment : Aligned on interleaves
Interleave, duration : 24 ms (0.58 video frame)
Interleave, preload duration : 537 ms
						
Login 2013 Hindi Movies HDDVD Rip XviD Sample Included ~ rDX/Login 2013 Hindi Movies HDDVD Rip XviD ~ rDX.avi 724.336 MB
Login 2013 Hindi Movies HDDVD Rip XviD Sample Included ~ rDX/Sample ~ Login 2013 Hindi Movies HDDVD Rip XviD ~ rDX.avi 11.467 MB
Gathering some info...

Register and log in Isohunt and see no captcha anymore!

4000 symbols left
Hash f54ce8826847c0efe6d95d595af3c53cc72dd602