imdb
rating

6.0
Something Real and Good

Something Real and Good (2013)

Full description
quality   h264 hd web-dl web-rip x264

Something.Real.and.Good.2013.WEBRip XViD juggs

Size 741.38 MB   93 seeders     Added 2013-03-12 09:57:13

Stream torrent
Starting‥ You need BitLord! Get it from BitLord.com
To download or stream you need BitLord. Visit them at BitLord.com
							
Source : NGB
Format : AVI
Format/Info : Audio Video Interleave
File size : 699 MiB
Duration : 1h 21mn
Overall bit rate : 1 204 Kbps
Writing library : VirtualDub build 32842/release
Video
ID : 0
Format : MPEG-4 Visual
Format profile : Advanced Simple@L5
Format settings, BVOP : 2
Format settings, QPel : No
Format settings, GMC : No warppoints
Format settings, Matrix : Default (H.263)
Muxing mode : Packed bitstream
Codec ID : XVID
Codec ID/Hint : XviD
Duration : 1h 21mn
Bit rate : 1 067 Kbps
Width : 640 pixels
Height : 272 pixels
Display aspect ratio : 2.35:1
Frame rate : 23.976 fps
Color space : YUV
Chroma subsampling : 4:2:0
Bit depth : 8 bits
Scan type : Progressive
Compression mode : Lossy
Bits/(Pixel*Frame) : 0.256
Stream size : 620 MiB (89%)
Writing library : XviD 64
Audio
ID : 1
Format : MPEG Audio
Format version : Version 1
Format profile : Layer 3
Codec ID : 55
Codec ID/Hint : MP3
Duration : 1h 21mn
Bit rate mode : Constant
Bit rate : 128 Kbps
Channel(s) : 2 channels
Sampling rate : 44.1 KHz
Compression mode : Lossy
Stream size : 74.4 MiB (11%)
Alignment : Split accross interleaves
Interleave, duration : 42 ms (1.00 video frame)
Interleave, preload duration : 500 ms
Writing library : LAME3.99r
Encoding settings : -m s -V 4 -q 3 -lowpass 17 -b 128
Plot
A young man and woman meet by chance in an airport while waiting for a delayed flight. When the plane is rerouted, they decide to make the best of it, and over the course of one night,
Something.Real.and.Good.2013.WEBRip XViD juggs/Something.Real.and.Good.2013.WEBRip XViD juggs.avi 733.38 MB
Something.Real.and.Good.2013.WEBRip XViD juggs/Torrent Downloaded From ExtraTorrent.com.txt 339 B
Something.Real.and.Good.2013.WEBRip XViD juggs/sample.avi 7.999 MB
Gathering some info...

Register and log in Isohunt and see no captcha anymore!

4000 symbols left
Hash 8173050672d42fbd2f3db32e91b43bdc7738f01a

Related torrents for "Something.Real.and.Good.2013.WEBRip XViD juggs"

Torrent search:

web-rip 2013