Comic Relief

Comic Relief (1986)

Comedy

Full description

Lets.Dance.For.Comic.Relief.S05E04.Final.PDTV.x264-W33D.mp4

Size 1.175 GB   0 seeders     Added 2013-03-12 12:02:09

Stream torrent
Starting‥ You need BitLord! Get it from 1BitLord.com
To download or stream you need BitLord. Visit them at BitLord.com
Let's Dance for Comic/Sport Relief is a British television programme shown on BBC One, featuring celebrities performing famous dance routines to raise money for the charities Comic Relief and Sport Relief.[1] The programme is currently presented by Steve Jones and Alex Jones, who replaced previous host Claudia Winkleman in 2011. In the first series, Anton du Beke was a regular judge, appearing alongside two guest panellists, but in the second series onwards, three guest judges were on the panel each week.

General
Complete name : Lets.Dance.For.Comic.Relief.S05E04.Final.PDTV.x264-W33D.mp4
Format : MPEG-4
Format profile : Base Media
Codec ID : isom
File size : 1.09 GiB
Duration : 1h 24mn
Overall bit rate mode : Variable
Overall bit rate : 1 865 Kbps
Writing application : Lavf52.64.2

Video
ID : 1
Format : AVC
Format/Info : Advanced Video Codec
Format profile : High@L3.1
Format settings, CABAC : Yes
Format settings, ReFrames : 4 frames
Codec ID : avc1
Codec ID/Info : Advanced Video Coding
Duration : 1h 24mn
Bit rate : 1 721 Kbps
Width : 688 pixels
Height : 384 pixels
Display aspect ratio : 16:9
Frame rate mode : Constant
Frame rate : 25.000 fps
Color space : YUV
Chroma subsampling : 4:2:0
Bit depth : 8 bits
Scan type : Progressive
Bits/(Pixel*Frame) : 0.261
Stream size : 1.01 GiB (92%)

Audio
ID : 2
Format : AAC
Format/Info : Advanced Audio Codec
Format profile : LC
Codec ID : 40
Duration : 1h 24mn
Duration_LastFrame : -21ms
Bit rate mode : Variable
Bit rate : 138 Kbps
Channel(s) : 2 channels
Channel positions : Front: L R
Sampling rate : 48.0 KHz
Compression mode : Lossy
Delay relative to video : 200ms
Stream size : 82.9 MiB (7%)
		
Lets.Dance.For.Comic.Relief.S05E04.Final.PDTV.x264-W33D.mp4 1.175 GB
Gathering some info...

Register and log in Isohunt and see no captcha anymore!

4000 symbols left
Hash 0f1e6f4af6adedb34d9e67be1ca3403a7662aa92

Related torrents for "Lets.Dance.For.Comic.Relief.S05E04.Final.PDTV.x264-W33D.mp4"

Torrent search:

season 05 x264 hdtv episode 04