imdb
rating

5.9
The Horde

The Horde (2009)

Action, Horror, Thriller

Full description
quality   dvdrip bd x264 hd h264

The Horde (2009)

Size 1.566 GB   21 seeders     Added 2013-03-12 13:19:22

Stream torrent
Starting‥ You need BitLord! Get it from BitLord.com
10
To download or stream you need BitLord. Visit them at BitLord.com
							The Horde - La Horde (2009) [XviD - Italian French Ac3 5.1 - Sub Ita] MIRCrew [TNT Village]
********************************************* 
Titolo originale 	La Horde
Lingua originale 	francese, ceco
Paese di produzione 	Francia
Anno 	2009
Durata 	90 min
Genere 	azione, horror, thriller
Regia 	Yannick Dahan, Benjamin Rocher
Sceneggiatura 	Arnaud Bordas, Yannick Dahan, Stéphane Moïssakis, Benjamin Rocher, Nicolas Peufaillit (consulente al copione)
Produttore 	Raphaël Rocher
Casa di produzione 	Capture (The Flag) Films, Le Pacte, Coficup, Un Fonds Backups Films, Canal+, CinéCinéma
Distribuzione (Italia) 	Fandango
Fotografia 	Julien Meurice
Montaggio 	Dimitri Amar
Musiche 	Christopher Lennertz, Stéphane Moïssakis, Benjamin Rocher
Scenografia 	Jérémie Streliski
Costumi 	Priscillia Van Sprengel
Premi
 Fantasporto: 2 International Fantasy Film Award per la miglior sceneggiatura e per la miglior fotografia
 Premio della giuria Sci-fi al Festival internazionale del film fantastico di Gérardmer
*********************
 Claude Perron: Aurore
 Jean-Pierre Martins: Ouessem
 Eriq Ebouaney: Adewale
 Aurélien Recoing: Jimenez
 Doudou Masta: Bola
 Antoine Oppenheim: Tony
 Jo Prestia: José
 Yves Pignot: René
 Adam Pengsawang: il ceco
 Sébastien Peres: Séb
 Laurent Demianoff: Kim
Doppiatori italiani
 Laura Boccanera: Aurore
 Pasquale Anselmo: Ouessem
 Mario Bombardieri: Adewale
 Diego Reggente: Jimenez
 Dante Biagioni: René
Un gruppo di poliziotti decide di vendicare un loro amico, ucciso da una gang di criminali che vive in un fatiscente palazzo popolare. Del gruppo fa parte anche la compagna del poliziotto 
ucciso, incinta e furiosa. Arrivati all'edificio, avvertiti dal custode dell'immobile su dove possono trovare i loro nemici si dirigono per affrontarli, ma lo stesso custode di prima li 
distrae al momento dell'irruzione e l'attacco a sorpresa fallisce.
Dopo una breve colluttazione vengono catturati; uno di loro durante l'interrogatorio viene ucciso, un altro è stato ferito in precedenza e un terzo (infiltrato nel gruppo) viene ucciso 
all'interno dell'appartamento. Mentre per i poliziotti rimasti pare non esserci più scampo, dalla camera in cui il poliziotto infiltrato era stato ucciso, provengono delle 
urla...........................
Storyline:
A posse of crooked cops, malevolent gangsters and a horde of walking dead are the centre point of this gruesome, tight, action packed, claustrophobic tale of retribution and escape. Penned 
like animals, on the top floor of a deserted high-rise block, these two opposing gangs find that they are not alone in the lair of bloodthirsty corridors of death. Joining forces to 
survive, they must reach ground level together or perish. Loaded with a bad ass attitude, guns, axes and extremely creative hand-to-hand combat sequences that project the fears and paranoia 
that are.........
General
Complete name : The Horde (2009)\The Horde (2009).avi
Format : AVI
Format/Info : Audio Video Interleave
File size : 1.45 GiB
Duration : 1h 32mn
Overall bit rate : 2 245 Kbps
Writing application : VirtualDubMod 1.5.4.1 (build 2178/release)
Writing library : VirtualDubMod build 2178/release
Video
ID : 0
Format : MPEG-4 Visual
Format profile : Advanced Simple@L5
Format settings, BVOP : No
Format settings, QPel : No
Format settings, GMC : No warppoints
Format settings, Matrix : Custom
Codec ID : XVID
Codec ID/Hint : XviD
Duration : 1h 32mn
Bit rate : 1 340 Kbps
Width : 720 pixels
Height : 304 pixels
Display aspect ratio : 2.35:1
Frame rate : 25.000 fps
Color space : YUV
Chroma subsampling : 4:2:0
Bit depth : 8 bits
Scan type : Progressive
Bits/(Pixel*Frame) : 0.245
Stream size : 888 MiB (60%)
Writing library : XviD 1.2.1 (UTC 2008-12-04)
Audio #1
ID : 1
Format : AC-3
Format/Info : Audio Coding 3
Mode extension : CM (complete main)
Codec ID : 2000
Duration : 1h 32mn
Bit rate mode : Constant
Bit rate : 448 Kbps
Channel(s) : 6 channels
Channel positions : Front: L C R, Side: L R, LFE
Sampling rate : 48.0 KHz
Bit depth : 16 bits
Stream size : 297 MiB (20%)
Alignment : Aligned on interleaves
Interleave, duration : 96 ms (2.40 video frames)
Interleave, preload duration : 96 ms
Language : Italian
Audio #2
ID : 2
Format : AC-3
Format/Info : Audio Coding 3
Mode extension : CM (complete main)
Codec ID : 2000
Duration : 1h 32mn
Bit rate mode : Constant
Bit rate : 448 Kbps
Channel(s) : 6 channels
Channel positions : Front: L C R, Side: L R, LFE
Sampling rate : 48.0 KHz
Bit depth : 16 bits
Stream size : 297 MiB (20%)
Alignment : Aligned on interleaves
Interleave, duration : 96 ms (2.40 video frames)
Interleave, preload duration : 96 ms
Language : French
						
The Horde (2009)/The Horde (2010).avi 1.56 GB
The Horde (2009)/The Horde (2010).idx 74.282 KB
The Horde (2009)/The Horde (2010).sub 5.859 MB
Gathering some info...

Register and log in Isohunt and see no captcha anymore!

4000 symbols left
Hash 7d7f28e06c33d0876526b0355e7c4f3d78ae13de

Related torrents for "The Horde (2009)"

Torrent search:

2009