imdb
rating

5.8
Matru Ki Bijlee Ka Mandola

Matru Ki Bijlee Ka Mandola (2013)

Comedy, Foreign

Full description

Matru ki Bijlee ka Mandola 2013 BRRip 720p x264 Hindi ESubs - ViZNU [P2PDL]

Size 900.938 MB   0 seeders     Added 2013-03-12 13:19:14

Stream torrent
Starting‥ You need BitLord! Get it from BitLord.com
To download or stream you need BitLord. Visit them at BitLord.com
							Matru ki Bijlee ka Mandola 2013 BRRip 720p x264 Hindi ESubs - ViZNUGenre: Comedy | Drama
Plot: Harry is an industrialist who loves his daughter Bijlee, and the bond they share with Harry's
man friday, Matru. Bijlee's plan to wed the son of a politician, however, brings twists and turns in
the lives of Matru, Bijlee and Mandola. 
Director: Vishal Bhardwaj
Stars: Pankaj Kapur, Imran Khan, Anushka Sharma 
Rated: N/aInfo:http://www.imdb.com/title/tt2106537/Trailer:https://www.youtube.com/watch?v=eihADcleSCQFormat : MPEG-4
File size : 848 MiB
Duration : 2h 29mn
Overall bit rate : 792 Kbps
Video Format : AVC
Video Bit rate : 705 Kbps
Width : 1 280 pixels
Height : 544 pixels
Display aspect ratio : 2.35:1
Frame rate mode : Constant
Frame rate : 23.976 fps
Stream size : 755 MiB (89%)
Writing library : x264 core 129 r2245
Audio Format : AAC
Audio Bit rate : 84.0 Kbps
Channel(s) : 2 channels
Channel positions : Front: L R
Sampling rate : 48.0 KHz
Stream size : 89.9 MiB (11%)
Language : Hindi
Subtitle : Yes (English)
Source : 720p.Bluray.DDR(Thanks)Screenshots:     
----------------------------------------------------------------------------------------------------Encoded using revolutionary 10bit encoding, which enables us to provide you more crispier and
sharper images at small sizes, just make sure you follow our instructions without a fault.
Recommend to you to use latest version of VLC player. Install K-Lite Codec Pack or shark007 codecs
in case of any kind of problem in playback (For non-VLC Media Player users). Alternatively, install
Core AVC codecs, the fastest decoder that there is coupled with Community Center Codec Pack and play
on Windows Media Player Classic. Check sample to be sure.
Enjoy!
Greets to: Vitamin_X, a2zRG, srkfan, MgB, Stumpie1971, StyLishSaLH and, Masta staff members at ExtraTorrent,
TPB, H33T, KAT, 1337x, PublicHD, Ahashare, BTScene, SilverTorrent, LimeTorrents, TorrentMafia, P2PDL, and all
others.
Encoder Notes: Looking For Early Access To Anything You Can Provide DVDScr, R5, DVDR, BluRay, Direct
Audio, Music Releases and Seedboxes. We require dedicated servers, so as to do more and fast releases of movies.
If You Got anything to offer contact us at "prg@hush.com".
						
Matru ki Bijlee ka Mandola 2013 BRRip 720p x264 Hindi ESubs - ViZNU [P2PDL]/Matru ki Bijlee ka Mandola 2013 BRRip 720p x264 Hindi ESubs - ViZNU/Matru ki Bijlee ka Mandola 2013 BRRip 720p x264 Hindi ESubs - ViZNU.mp4 889.314 MB
Matru ki Bijlee ka Mandola 2013 BRRip 720p x264 Hindi ESubs - ViZNU [P2PDL]/Sample.mp4 11.427 MB
Matru ki Bijlee ka Mandola 2013 BRRip 720p x264 Hindi ESubs - ViZNU [P2PDL]/Matru ki Bijlee ka Mandola 2013 BRRip 720p x264 Hindi ESubs - ViZNU/Matru ki Bijlee ka Mandola 2013 BRRip 720p x264 Hindi ESubs - ViZNU.srt 191.612 KB
Gathering some info...

Register and log in Isohunt and see no captcha anymore!

4000 symbols left
Hash 540645a4a02201c9a9b28de635d94aaaf9116536

Related torrents for "Matru ki Bijlee ka Mandola 2013 BRRip 720p x264 Hindi ESubs - ViZNU [P2PDL]"

Torrent search:

x264 hd hindi bd 2013