imdb
rating

6.4
Oz: The Great and Powerful

Oz: The Great and Powerful (2013)

Adventure, Fantasy, Family

Full description

[ www.Speed.Cd ] - Oz.the.Great.and.Powerful.2013.720p.TS.XviD.MP3-UPSCAL3D

Size 3.415 GB   0 seeders     Added 2013-03-12 13:31:43

Stream torrent
Starting‥ You need BitLord! Get it from 1BitLord.com
To download or stream you need BitLord. Visit them at BitLord.com
- 
http://www.Speed.Cd
 
http://www.Speed.Cd       the fast  and The Hottest Private Tracker on the net

Please Seed back to make the speed Faster!!
 ............ NFO .............
-[img]image[/img]

Oz.the.Great.and.Powerful.2013.720p.TS.XviD.MP3-UPSCAL3D
 
http://www.imdb.com/title/tt1623205/

Source...: Video..: Oz.Velikij.iUjasnij.2013.D.TS (upscaled)   Audio..: MiNiSTRY


Format                                   : AVI
Format/Info                              : Audio Video Interleave
Format profile                           : OpenDML
File size                                : 3.16 GiB
Duration                                 : 2h 4mn
Overall bit rate                         : 3 638 Kbps
Writing application                      : VirtualDubMod 1.5.10.2 (build 2540/release)
Writing library                          : VirtualDubMod build 2540/release

Video
ID                                       : 0
Format                                   : MPEG-4 Visual
Format profile                           : Advanced Simple@L5
Format settings, BVOP                    : 2
Format settings, QPel                    : No
Format settings, GMC                     : No warppoints
Format settings, Matrix                  : Default (H.263)
Codec ID                                 : XVID
Codec ID/Hint                            : XviD
Duration                                 : 2h 4mn
Bit rate                                 : 3 500 Kbps
Width                                    : 1 280 pixels
Height                                   : 456 pixels
Display aspect ratio                     : 2.807
Frame rate                               : 25.000 fps
Color space                              : YUV
Chroma subsampling                       : 4:2:0
Bit depth                                : 8 bits
Scan type                                : Progressive
Compression mode                         : Lossy
Bits/(Pixel*Frame)                       : 0.240
Stream size                              : 3.04 GiB (96%)
Writing library                          : XviD 1.2.1 (UTC 2008-12-04)

Audio
ID                                       : 1
Format                                   : MPEG Audio
Format version                           : Version 1
Format profile                           : Layer 3
Mode                                     : Joint stereo
Mode extension                           : MS Stereo
Codec ID                                 : 55
Codec ID/Hint                            : MP3
Duration                                 : 2h 4mn
Bit rate mode                            : Constant
Bit rate                                 : 128 Kbps
Channel(s)                               : 2 channels
Sampling rate                            : 48.0 KHz
Compression mode                         : Lossy
Stream size                              : 114 MiB (4%)
Alignment                                : Aligned on interleaves
Interleave, duration                     : 40 ms (1.00 video frame)
Interleave, preload duration             : 504 ms
Writing library                          : LAME3.98r
Encoding settings                        : -m j -V 4 -q 3 -lowpass 17 -b 128

[img]image[/img]
[img]image[/img]
[img]image[/img]
[img]image[/img]

NOTES.....: was bored, decided to upscale it, turned out better than expect... dont like , dont grab and then there will be no complaints
PS... Bigger is Always Better		
[ www.Speed.Cd ] - Oz.the.Great.and.Powerful.2013.720p.TS.XviD.MP3-UPSCAL3D/Oz.the.Great.and.Powerful.2013.720p.TS.XviD.MP3-UPSCAL3D.avi 3.39 GB
[ www.Speed.Cd ] - Oz.the.Great.and.Powerful.2013.720p.TS.XviD.MP3-UPSCAL3D/Oz.the.Great.and.Powerful.2013.720p.TS.XviD.MP3-UPSCAL3D.nfo 3.524 KB
[ www.Speed.Cd ] - Oz.the.Great.and.Powerful.2013.720p.TS.XviD.MP3-UPSCAL3D/Oz.the.Great.and.Powerful.2013.720p.TS.XviD.MP3-UPSCAL3D.sample.avi 24.736 MB
Gathering some info...

Register and log in Isohunt and see no captcha anymore!

4000 symbols left
Hash 623f3a8e1444e9c3e0f68e76975513daa209de44

Related torrents for "[ www.Speed.Cd ] - Oz.the.Great.and.Powerful.2013.720p.TS.XviD.MP3-UPSCAL3D"

Torrent search:

telesync hd 2013