imdb
rating

4.8
Circle of Lies

Circle of Lies (2012)

Full description
quality   h264 hd web-dl web-rip dvdrip

Circle.of.Lies.2012.WEBRip XViD juggs

Size 752.696 MB   61 seeders     Added 2013-03-12 20:15:50

Stream torrent
Starting‥ You need BitLord! Get it from BitLord.com
To download or stream you need BitLord. Visit them at BitLord.com
 http://www.imdb.com/title/tt1852097/

Format : AVI
Format/Info : Audio Video Interleave
File size : 700 MiB
Duration : 1h 21mn
Overall bit rate : 1 205 Kbps
Writing library : VirtualDub build 32842/release

Video
ID : 0
Format : MPEG-4 Visual
Format profile : Advanced Simple@L5
Format settings, BVOP : 4
Format settings, QPel : No
Format settings, GMC : No warppoints
Format settings, Matrix : Default (H.263)
Muxing mode : Packed bitstream
Codec ID : XVID
Codec ID/Hint : XviD
Duration : 1h 21mn
Bit rate : 1 068 Kbps
Width : 640 pixels
Height : 352 pixels
Display aspect ratio : 16:9
Frame rate : 23.976 fps
Color space : YUV
Chroma subsampling : 4:2:0
Bit depth : 8 bits
Scan type : Progressive
Compression mode : Lossy
Bits/(Pixel*Frame) : 0.198
Stream size : 620 MiB (89%)
Writing library : XviD 64

Audio
ID : 1
Format : MPEG Audio
Format version : Version 1
Format profile : Layer 3
Codec ID : 55
Codec ID/Hint : MP3
Duration : 1h 21mn
Bit rate mode : Constant
Bit rate : 128 Kbps
Channel(s) : 2 channels
Sampling rate : 44.1 KHz
Compression mode : Lossy
Stream size : 74.3 MiB (11%)
Alignment : Split accross interleaves
Interleave, duration : 42 ms (1.00 video frame)
Interleave, preload duration : 500 ms
Writing library : LAME3.99r
Encoding settings : -m s -V 4 -q 3 -lowpass 17 -b 128


Plot
Once the most popular girl at Short Beach High, Denise Dixon finds her life turned upside-down after one night of terror. Rumours and violent backstabbing run rife. Life in Short Beach will never be the same.

 
image 
image 
image 
image		
Circle.of.Lies.2012.WEBRip XViD juggs/Circle.of.Lies.2012.WEBRip XViD juggs.avi 733.721 MB
Circle.of.Lies.2012.WEBRip XViD juggs/Torrent Downloaded From ExtraTorrent.com.txt 339 B
Circle.of.Lies.2012.WEBRip XViD juggs/sample.avi 18.975 MB
Gathering some info...

Register and log in Isohunt and see no captcha anymore!

4000 symbols left
Hash baa77230ed48624365a596a3ca60ab958d9915eb

Related torrents for "Circle.of.Lies.2012.WEBRip XViD juggs"

Torrent search:

2012 web-rip