Betrayal.2012.DVDRip.AC3.HORiZON-ArtSubs

Size 1.79 GB   12 seeders     Added 2013-03-12 21:45:43

Stream torrent
Starting‥ You need BitLord! Get it from BitLord.com
To download or stream you need BitLord. Visit them at BitLord.com
Title:
Betrayal Aka Izmena

Country:
Russia/2012

Language:
Russian

Subtitle:
English

Director:
Kirill Serebrennikov

Stars:
Albina Dzhanabaeva, Dejan Lilic, Svetlana Mamresheva 

Synopsis:
A romance between two strangers who discover that their partners are lovers.

Trivia:
Official Selection Venice Film Festival 2012.

Media Info:

General
Complete name                            : Betrayal.2012.DVDRip.AC3.HORiZON-ArtSubs
Format                                   : AVI
Format/Info                              : Audio Video Interleave
Format profile                           : OpenDML
File size                                : 1.67 GiB
Duration                                 : 1h 54mn
Overall bit rate                         : 2 081 Kbps
Writing application                      : Lavf52.94.0

Video
ID                                       : 0
Format                                   : MPEG-4 Visual
Format profile                           : Simple@L3
Format settings, BVOP                    : No
Format settings, QPel                    : No
Format settings, GMC                     : No warppoints
Format settings, Matrix                  : Default (H.263)
Codec ID                                 : XVID
Codec ID/Hint                            : XviD
Duration                                 : 1h 54mn
Bit rate                                 : 1 845 Kbps
Width                                    : 1 024 pixels
Height                                   : 576 pixels
Display aspect ratio                     : 16:9
Frame rate                               : 25.000 fps
Color space                              : YUV
Chroma subsampling                       : 4:2:0
Bit depth                                : 8 bits
Scan type                                : Progressive
Compression mode                         : Lossy
Bits/(Pixel*Frame)                       : 0.125
Stream size                              : 1.48 GiB (89%)
Writing library                          : XviD 1.2.1 (UTC 2008-12-04)

Audio
ID                                       : 1
Format                                   : AC-3
Format/Info                              : Audio Coding 3
Mode extension                           : CM (complete main)
Format settings, Endianness              : Big
Codec ID                                 : 2000
Duration                                 : 1h 54mn
Bit rate mode                            : Constant
Bit rate                                 : 224 Kbps
Channel(s)                               : 2 channels
Channel positions                        : Front: L R
Sampling rate                            : 48.0 KHz
Bit depth                                : 16 bits
Compression mode                         : Lossy
Stream size                              : 184 MiB (11%)
Alignment                                : Aligned on interleaves
Interleave, duration                     : 32 ms (0.80 video frame)

		
Betrayal.2012.DVDRip.AC3.HORiZON-ArtSubs/Betrayal.2012.DVDRip.AC3.HORiZON-ArtSubs.avi 1.79 GB
Betrayal.2012.DVDRip.AC3.HORiZON-ArtSubs/Betrayal.2012.DVDRip.AC3.HORiZON-ArtSubs.srt 38.332 KB
Gathering some info...

Register and log in Isohunt and see no captcha anymore!

4000 symbols left
Hash bd23dc9142f285c7141da77ae7d713da52227c7d