imdb
rating

6.4
Oz: The Great and Powerful

Oz: The Great and Powerful (2013)

Adventure, Fantasy, Family

Full description

[ www.Speed.Cd ] - Oz The Great And Powerful 2013 TS XViD - ONELASTTiME

Size 1.51 GB   0 seeders     Added 2013-03-13 00:45:52

Stream torrent
Starting‥ You need BitLord! Get it from BitLord.com
To download or stream you need BitLord. Visit them at BitLord.com
- 
http://www.Speed.Cd
 
http://www.Speed.Cd       the fast  and The Hottest Private Tracker on the net

Please Seed back to make the speed Faster!!
 ............ NFO .............
-Oz The Great And Powerful 2013 TS XViD - ONELASTTiME

SOURCES:

RUSSIAN CAMRIP
MiNiSTRY  AUDIO

STATS:

Video
ID                               : 0
Format                           : MPEG-4 Visual
Format profile                   : Advanced Simple@L5
Format settings, BVOP            : 2
Format settings, QPel            : No
Format settings, GMC             : No warppoints
Format settings, Matrix          : Default (MPEG)
Muxing mode                      : Packed bitstream
Codec ID                         : XVID
Codec ID/Hint                    : XviD
Duration                         : 2h 4mn
Bit rate                         : 1 446 Kbps
Width                            : 720 pixels
Height                           : 272 pixels
Display aspect ratio             : 2.647
Frame rate                       : 25.000 fps
Color space                      : YUV
Chroma subsampling               : 4:2:0
Bit depth                        : 8 bits
Scan type                        : Progressive
Compression mode                 : Lossy
Bits/(Pixel*Frame)               : 0.295
Stream size                      : 1.25 GiB (91%)
Writing library                  : XviD 70

Audio
ID                               : 1
Format                           : MPEG Audio
Format version                   : Version 1
Format profile                   : Layer 3
Mode                             : Joint stereo
Mode extension                   : MS Stereo
Codec ID                         : 55
Codec ID/Hint                    : MP3
Duration                         : 2h 4mn
Bit rate mode                    : Constant
Bit rate                         : 128 Kbps
Channel(s)                       : 2 channels
Sampling rate                    : 48.0 KHz
Compression mode                 : Lossy
Stream size                      : 114 MiB (8%)
Alignment                        : Split accross interleaves
Interleave, duration             : 40 ms (1.00 video frame)
Interleave, preload duration     : 500 ms



WORKDONE:

Fixed the brightness,contrast levels whilst lowering the intes to low
the glare thats in the video.
Then Changed the rgb colours and lowered the sat,to make the colours less powerful.
Didn't bother with the smoother and sharpness filters as i don't think it would make that
much difference to be honest.

Audio was totally remastered...first changed all the EQ bands and lowered the ones that had too
much noise,then used a click and crackle filter i use for cleaning on LP's...before finally using
a hiss removal and resaving as mp3.

SCREENIES:

[IMG]image[/IMG]
[IMG]image[/IMG]
[IMG]image[/IMG]
[IMG]image[/IMG]
[IMG]image[/IMG]
[IMG]image[/IMG]
[IMG]image[/IMG]

EXTRA NOTES:

Well i was hoping this day never came,well not yet anyway.....but after a decade of doing this,its time to hang up the old
fingers and eyes :(
But for one last time i would like to thank all those i have had the pleasure of talking to,which has been many over all these
years.Its been a blast and i will sadly miss all this.
However it was all just fun at the start and was done just for that alone and a test of what could be done to the sources....but
last couple of years theres been alot of backstabbing and just pure hate from a new generation of users....
And on top of that theres been alot of grps,sites,users all falling victim and some doing hard times and what for ...some bloody films :(
So with all that ....i'm outta here !!

To all friends and its been a pleasure ......THANK YOU :)		
[ www.Speed.Cd ] - Oz The Great And Powerful 2013 TS XViD - ONELASTTiME/Oz The Great And Powerful 2013 TS XViD - ONELASTTiME.avi 1.476 GB
[ www.Speed.Cd ] - Oz The Great And Powerful 2013 TS XViD - ONELASTTiME/Oz The Great And Powerful 2013 TS XViD - ONELASTTiME.nfo 3.82 KB
[ www.Speed.Cd ] - Oz The Great And Powerful 2013 TS XViD - ONELASTTiME/SAMPLE.avi 34.695 MB
Gathering some info...

Register and log in Isohunt and see no captcha anymore!

4000 symbols left
Hash 7bf85684df27e496bb8305df7e497672cf3277ec

Related torrents for "[ www.Speed.Cd ] - Oz The Great And Powerful 2013 TS XViD - ONELASTTiME"

Torrent search:

telesync 2013