imdb
rating

6.4
Oz: The Great and Powerful

Oz: The Great and Powerful (2013)

Adventure, Fantasy, Family

Full description

Oz The Great And Powerful 2013 TS XViD - ONELASTTiME

Size 1.51 GB   0 seeders     Added 2013-03-13 01:16:21

Stream torrent
Starting‥ You need BitLord! Get it from BitLord.com
To download or stream you need BitLord. Visit them at BitLord.com
Oz The Great And Powerful 2013 TS XViD - ONELASTTiME

SOURCES:

RUSSIAN CAMRIP
MiNiSTRY  AUDIO

STATS:

Video
ID                               : 0
Format                           : MPEG-4 Visual
Format profile                   : Advanced Simple@L5
Format settings, BVOP            : 2
Format settings, QPel            : No
Format settings, GMC             : No warppoints
Format settings, Matrix          : Default (MPEG)
Muxing mode                      : Packed bitstream
Codec ID                         : XVID
Codec ID/Hint                    : XviD
Duration                         : 2h 4mn
Bit rate                         : 1 446 Kbps
Width                            : 720 pixels
Height                           : 272 pixels
Display aspect ratio             : 2.647
Frame rate                       : 25.000 fps
Color space                      : YUV
Chroma subsampling               : 4:2:0
Bit depth                        : 8 bits
Scan type                        : Progressive
Compression mode                 : Lossy
Bits/(Pixel*Frame)               : 0.295
Stream size                      : 1.25 GiB (91%)
Writing library                  : XviD 70

Audio
ID                               : 1
Format                           : MPEG Audio
Format version                   : Version 1
Format profile                   : Layer 3
Mode                             : Joint stereo
Mode extension                   : MS Stereo
Codec ID                         : 55
Codec ID/Hint                    : MP3
Duration                         : 2h 4mn
Bit rate mode                    : Constant
Bit rate                         : 128 Kbps
Channel(s)                       : 2 channels
Sampling rate                    : 48.0 KHz
Compression mode                 : Lossy
Stream size                      : 114 MiB (8%)
Alignment                        : Split accross interleaves
Interleave, duration             : 40 ms (1.00 video frame)
Interleave, preload duration     : 500 ms


Cast: James Franco, Michelle Williams, Rachel Weisz

Plot: A small-time magician arrives in an enchanted land and is forced to decide if he will be a good man or a great one. 


WORKDONE:

Fixed the brightness,contrast levels whilst lowering the intes to low
the glare thats in the video.
Then Changed the rgb colours and lowered the sat,to make the colours less powerful.
Didn't bother with the smoother and sharpness filters as i don't think it would make that
much difference to be honest.

Audio was totally remastered...first changed all the EQ bands and lowered the ones that had too much noise,then used a click and crackle filter i use for cleaning on LP's...before finally using
a hiss removal and resaving as mp3.


SCREENIES:
 
image
 
image
 
image
 
image
 
image
 
image		
Oz The Great And Powerful 2013 TS XViD - ONELASTTiME/Oz The Great And Powerful 2013 TS XViD - ONELASTTiME.avi 1.476 GB
Oz The Great And Powerful 2013 TS XViD - ONELASTTiME/Oz The Great And Powerful 2013 TS XViD - ONELASTTiME.nfo 3.82 KB
Oz The Great And Powerful 2013 TS XViD - ONELASTTiME/SAMPLE.avi 34.695 MB
Gathering some info...

Register and log in Isohunt and see no captcha anymore!

4000 symbols left
Hash fbf043c14badd01f69aa6f1a5c7851a0158c8ef0

Related torrents for "Oz The Great And Powerful 2013 TS XViD - ONELASTTiME"

Torrent search:

telesync 2013