imdb
rating

5.2
Java Heat

Java Heat (2013)

Action, Crime, Drama, Thriller

Full description
quality   bd x264 hd fullhd h264 dvdrip

[ www.Speed.Cd ] - Java.Heat.2013.BRRip.XviD-playXD

Size 742.709 MB   2 seeders     Added 2013-03-13 01:58:04

Stream torrent
Starting‥ You need BitLord! Get it from BitLord.com
To download or stream you need BitLord. Visit them at BitLord.com
							- http://www.Speed.Cdhttp://www.Speed.Cd the fast and The Hottest Private Tracker on the net
Please Seed back to make the speed Faster!!
 ............ NFO .............
-General
Complete name : E:Java.Heat.2013.BRRip.XviD-playXDJava.Heat.2013.BRRip.XviD-playXD.avi
Format : AVI
Format/Info : Audio Video Interleave
File size : 704 MiB
Duration : 1h 43mn
Overall bit rate : 948 Kbps
Writing application : VirtualDubMod 1.5.10.2 (build 2540/release)
Writing library : VirtualDubMod build 2540/release
Video
ID : 0
Format : MPEG-4 Visual
Format profile : Advanced Simple@L5
Format settings, BVOP : 3
Format settings, QPel : Yes
Format settings, GMC : No warppoints
Format settings, Matrix : Default (H.263)
Muxing mode : Packed bitstream
Codec ID : XVID
Codec ID/Hint : XviD
Duration : 1h 43mn
Bit rate : 811 Kbps
Width : 640 pixels
Height : 272 pixels
Display aspect ratio : 2.35:1
Frame rate : 23.976 fps
Color space : YUV
Chroma subsampling : 4:2:0
Bit depth : 8 bits
Scan type : Progressive
Compression mode : Lossy
Bits/(Pixel*Frame) : 0.194
Stream size : 602 MiB (86%)
Writing library : XviD 1.2.1 (UTC 2008-12-04)
Audio
ID : 1
Format : MPEG Audio
Format version : Version 1
Format profile : Layer 3
Mode : Joint stereo
Mode extension : MS Stereo
Codec ID : 55
Codec ID/Hint : MP3
Duration : 1h 43mn
Bit rate mode : Constant
Bit rate : 128 Kbps
Channel(s) : 2 channels
Sampling rate : 48.0 KHz
Compression mode : Lossy
Stream size : 95.0 MiB (13%)
Alignment : Aligned on interleaves
Interleave, duration : 42 ms (1.00 video frame)
Interleave, preload duration : 504 ms
Writing library : LAME3.99r
Encoding settings : -m j -V 4 -q 2 -lowpass 17 -b 128
						
[ www.Speed.Cd ] - Java.Heat.2013.BRRip.XviD-playXD/Java.Heat.2013.BRRip.XviD-playXD.avi 738.015 MB
[ www.Speed.Cd ] - Java.Heat.2013.BRRip.XviD-playXD/playXD.nfo 5.97 KB
[ www.Speed.Cd ] - Java.Heat.2013.BRRip.XviD-playXD/SAMPLE/SAMPLE.avi 4.688 MB
Gathering some info...

Register and log in Isohunt and see no captcha anymore!

4000 symbols left
Hash bea2240c9013890c20cf1eb5c5b0389093dc1b6f

Related torrents for "[ www.Speed.Cd ] - Java.Heat.2013.BRRip.XviD-playXD"

Torrent search:

bd 2013