The Call

The Call

News

Full description

For A Good Time Call (HD 1080p).m4v Verified

Size 5.234 GB   0 seeders     Added 2013-03-13 03:31:46

Stream torrent
Starting‥ You need BitLord! Get it from BitLord.com
To download or stream you need BitLord. Visit them at BitLord.com
General
Complete name                            : For A Good Time Call (HD 1080p).m4v
Format                                   : MPEG-4
Format profile                           : Base Media / Version 2
Codec ID                                 : mp42
File size                                : 4.87 GiB
Duration                                 : 1h 27mn
Overall bit rate mode                    : Variable
Overall bit rate                         : 7 980 Kbps
Movie name                               : For a Good Time, Call...
Performer                                : Seth Rogen, Justin Long, Ari Graynor, Mimi Rogers, Lauren Miller, Mark Webber, James Wolk, Nia Vardalos, Don McManus, Ken Marino
Genre                                    : Comedy
Recorded date                            : 2012-08-31
Encoded date                             : UTC 2013-02-04 08:02:07
Tagged date                              : UTC 2013-02-13 02:41:36
Writing application                      : HandBrake 5235svn 2013020301
Cover                                    : Yes
desc                                     : College ‟frenemies” Lauren and Katie move in together after losing a relationship and rent control, respectively. Sharing Katie's late grandmother's apartment in New York City, the girls bicker with each other until one fateful night, when Katie's noisy bedroom activities make Lauren barge in and discover a dirty little secret. This revelation brings them closer together, and Lauren (the brains) and Katie (the talent) concoct a wildly successful business venture. As profits swell, the girls reevaluate their hopes and dreams and realize that just because someone pees in your hair in college doesn't mean she won't be your best friend 10 years later.

Video #1
ID                                       : 1
Format                                   : AVC
Format/Info                              : Advanced Video Codec
Format profile                           : High@L4.0
Format settings, CABAC                   : Yes
Format settings, ReFrames                : 4 frames
Codec ID                                 : avc1
Codec ID/Info                            : Advanced Video Coding
Duration                                 : 1h 27mn
Bit rate mode                            : Variable
Bit rate                                 : 7 178 Kbps
Width                                    : 1 920 pixels
Height                                   : 816 pixels
Display aspect ratio                     : 2.35:1
Frame rate mode                          : Variable
Frame rate                               : 23.976 fps
Minimum frame rate                       : 13.325 fps
Maximum frame rate                       : 23.981 fps
Color space                              : YUV
Chroma subsampling                       : 4:2:0
Bit depth                                : 8 bits
Scan type                                : Progressive
Bits/(Pixel*Frame)                       : 0.191
Stream size                              : 4.38 GiB (90%)
Writing library                          : x264 core 129
Encoding settings                        : cabac=1 / ref=4 / deblock=1:0:0 / analyse=0x3:0x133 / me=umh / subme=10 / psy=1 / psy_rd=1.00:0.15 / mixed_ref=1 / me_range=32 / chroma_me=1 / trellis=2 / 8x8dct=1 / cqm=0 / deadzone=21,11 / fast_pskip=1 / chroma_qp_offset=-3 / threads=12 / lookahead_threads=2 / sliced_threads=0 / nr=0 / decimate=1 / interlaced=0 / bluray_compat=0 / constrained_intra=0 / bframes=4 / b_pyramid=2 / b_adapt=2 / b_bias=0 / direct=3 / weightb=1 / open_gop=0 / weightp=2 / keyint=300 / keyint_min=30 / scenecut=40 / intra_refresh=0 / rc_lookahead=60 / rc=crf / mbtree=1 / crf=18.0 / qcomp=0.60 / qpmin=4 / qpmax=69 / qpstep=4 / vbv_maxrate=25000 / vbv_bufsize=31250 / crf_max=0.0 / nal_hrd=none / ip_ratio=1.40 / aq=1:1.00
Language                                 : English
Encoded date                             : UTC 2013-02-04 08:02:07
Tagged date                              : UTC 2013-02-04 12:25:02
Color primaries                          : BT.709
Transfer characteristics                 : BT.709
Matrix coefficients                      : BT.709

Audio #1
ID                                       : 2
Format                                   : AAC
Format/Info                              : Advanced Audio Codec
Format profile                           : LC
Codec ID                                 : 40
Duration                                 : 1h 27mn
Bit rate mode                            : Variable
Bit rate                                 : 153 Kbps
Maximum bit rate                         : 276 Kbps
Channel(s)                               : 2 channels
Channel positions                        : Front: L R
Sampling rate                            : 48.0 KHz
Compression mode                         : Lossy
Delay relative to video                  : 83ms
Stream size                              : 95.6 MiB (2%)
Language                                 : English
Encoded date                             : UTC 2013-02-04 08:02:07
Tagged date                              : UTC 2013-02-04 12:25:02

Audio #2
ID                                       : 3
Format                                   : AC-3
Format/Info                              : Audio Coding 3
Mode extension                           : CM (complete main)
Format settings, Endianness              : Big
Codec ID                                 : ac-3
Duration                                 : 1h 27mn
Bit rate mode                            : Constant
Bit rate                                 : 640 Kbps
Channel(s)                               : 6 channels
Channel positions                        : Front: L C R, Side: L R, LFE
Sampling rate                            : 48.0 KHz
Bit depth                                : 16 bits
Compression mode                         : Lossy
Delay relative to video                  : 83ms
Stream size                              : 400 MiB (8%)
Language                                 : English
Encoded date                             : UTC 2013-02-04 08:02:07
Tagged date                              : UTC 2013-02-04 12:25:02		
For A Good Time Call (HD 1080p).m4v 5.234 GB
Gathering some info...

Register and log in Isohunt and see no captcha anymore!

4000 symbols left
Hash aeb2a9c2da14905f4098f8b7e3f5406d05ef8194

Related torrents for "For A Good Time Call (HD 1080p).m4v"

Torrent search:

hd fullhd