imdb
rating

6.4
Interview with a Hitman

Interview with a Hitman (2012)

Action, Thriller

Full description
quality   bd x264 hd dvdrip dvdr fullhd

Interview with a Hitman 2012 720p BRRip x264 - Lampmp3 Verified

Size 1.103 GB   0 seeders     Added 2013-03-13 04:16:36

Stream torrent
Starting‥ You need BitLord! Get it from BitLord.com
To download or stream you need BitLord. Visit them at BitLord.com
Interview with a Hitman 2012 720p BRRip x264 - Lampmp3

[img]image[/img]

------- 
http://www.imdb.com/title/tt2061712/
-------

General
Source					 : YIFY 
Ripper					 : Lampmp3
Format                                   : MPEG-4
Format profile                           : Base Media
Codec ID                                 : isom
File size                                : 1.03 GiB
Duration                                 : 1h 35mn
Overall bit rate mode                    : Variable
Overall bit rate                         : 1 535 Kbps
Writing application                      : Lavf52.84.0

Video
ID                                       : 1
Format                                   : MPEG-4 Visual
Format profile                           : Simple@L3
Format settings, BVOP                    : No
Format settings, QPel                    : No
Format settings, GMC                     : No warppoints
Format settings, Matrix                  : Default (H.263)
Codec ID                                 : 20
Duration                                 : 1h 35mn
Bit rate                                 : 1 435 Kbps
Width                                    : 1 280 pixels
Height                                   : 688 pixels
Display aspect ratio                     : 1.85:1
Frame rate mode                          : Constant
Frame rate                               : 24.000 fps
Color space                              : YUV
Chroma subsampling                       : 4:2:0
Bit depth                                : 8 bits
Scan type                                : Progressive
Compression mode                         : Lossy
Bits/(Pixel*Frame)                       : 0.068
Stream size                              : 984 MiB (93%)
Writing library                          : ZJMedia MPEG Encoder

Audio
ID                                       : 2
Format                                   : AAC
Format/Info                              : Advanced Audio Codec
Format profile                           : LC
Codec ID                                 : 40
Duration                                 : 1h 35mn
Bit rate mode                            : Variable
Bit rate                                 : 96.0 Kbps
Channel(s)                               : 2 channels
Channel positions                        : Front: L R
Sampling rate                            : 48.0 KHz
Compression mode                         : Lossy
Stream size                              : 65.6 MiB (6%)
Language                                 : English


[img]image[/img]		
Interview with a Hitman 2012 720p BRRip x264 - Lampmp3/Interview.with.a.Hitman.2012.720p.BRRip.x264-Lampmp3.mp4 1.103 GB
Interview with a Hitman 2012 720p BRRip x264 - Lampmp3/info.txt 2.411 KB
Interview with a Hitman 2012 720p BRRip x264 - Lampmp3/Torrent downloaded from ExtraTorrent.com.txt 353 B
Gathering some info...

Register and log in Isohunt and see no captcha anymore!

4000 symbols left
Hash 04f98948bea0304dbda39ff46ee118e19a41fcf6

Related torrents for "Interview with a Hitman 2012 720p BRRip x264 - Lampmp3"

Torrent search:

x264 hd 2012 bd