[ www.Speed.Cd ] - Steel (1979) VHSRip - kaka

Size 1.027 GB   0 seeders     Added 2013-03-13 05:45:38

Stream torrent
Starting‚Ä• You need BitLord! Get it from BitLord.com
To download or stream you need BitLord. Visit them at BitLord.com
- 
http://www.Speed.Cd
 
http://www.Speed.Cd       the fast  and The Hottest Private Tracker on the net

Please Seed back to make the speed Faster!!
 ............ NFO .............
-General
Complete name                            : Steel (1979) VHSRip - kaka.avi
Format                                   : AVI
Format/Info                              : Audio Video Interleave
File size                                : 979 MiB
Duration                                 : 1h 44mn
Overall bit rate                         : 1 308 Kbps
Writing application                      : transcode-1.1.5

Video
ID                                       : 0
Format                                   : MPEG-4 Visual
Format profile                           : Simple@L3
Format settings, BVOP                    : No
Format settings, QPel                    : No
Format settings, GMC                     : No warppoints
Format settings, Matrix                  : Default (H.263)
Codec ID                                 : DX50
Codec ID/Hint                            : DivX 5
Duration                                 : 1h 44mn
Bit rate                                 : 1 040 Kbps
Width                                    : 640 pixels
Height                                   : 480 pixels
Display aspect ratio                     : 4:3
Frame rate                               : 29.970 fps
Color space                              : YUV
Chroma subsampling                       : 4:2:0
Bit depth                                : 8 bits
Scan type                                : Progressive
Compression mode                         : Lossy
Bits/(Pixel*Frame)                       : 0.113
Stream size                              : 779 MiB (80%)
Writing library                          : XviD 1.2.1 (UTC 2008-12-04)

Audio
ID                                       : 1
Format                                   : AC-3
Format/Info                              : Audio Coding 3
Mode extension                           : CM (complete main)
Codec ID                                 : 2000
Duration                                 : 1h 44mn
Bit rate mode                            : Constant
Bit rate                                 : 256 Kbps
Channel(s)                               : 2 channels
Channel positions                        : Front: L R
Sampling rate                            : 48.0 KHz
Bit depth                                : 16 bits
Compression mode                         : Lossy
Stream size                              : 192 MiB (20%)
Alignment                                : Aligned on interleaves
Interleave, duration                     : 32 ms (0.96 video frame)
Interleave, preload duration             : 64 ms		
[ www.Speed.Cd ] - Steel (1979) VHSRip - kaka/Steel (1979) VHSRip - kaka.avi 1.027 GB
[ www.Speed.Cd ] - Steel (1979) VHSRip - kaka/Steel (1979) VHSRip - kaka.nfo 2.543 KB
[ www.Speed.Cd ] - Steel (1979) VHSRip - kaka/www.Speed.Cd read me .txt 60 B
Gathering some info...

Register and log in Isohunt and see no captcha anymore!

4000 symbols left
Hash 3128fc5eecf0a1a6e1b8b9422b862a838d9ef3ef

Related torrents for "[ www.Speed.Cd ] - Steel (1979) VHSRip - kaka"

Torrent search:

1979