imdb
rating

4.8
English

English (2013)

Drama, TV Movie

Full description

Special.Chabbis.2013.DVDRip.XviD.1xCD.Subs.English.Arabic.RRG.DADA Verified

Size 738.721 MB   0 seeders     Added 2013-03-13 06:15:55

Stream torrent
Starting‥ You need BitLord! Get it from BitLord.com
To download or stream you need BitLord. Visit them at BitLord.com
Special Chabbis (2013) DVDRip XviD 1xCD Subs: English / Arabic DDR [RRG DBB][DADA]


Cover - 
  


    	image



Screens -






    	image
    	image
    	image
    	image
    	image
    	image
    	image
    	image
    	image
    	image


Info  


General

Format                           : AVI
Format/Info                      : Audio Video Interleave
File size                        : 698 MiB
Duration                         : 2h 23mn
Overall bit rate                 : 679 Kbps
Writing application              : VirtualDubMod 1.5.10.2 (build 2540/release)
Writing library                  : VirtualDubMod build 2540/release

Video
ID                               : 0
Format                           : MPEG-4 Visual
Format profile                   : Advanced Simple@L5
Format settings, BVOP            : Yes
Format settings, QPel            : No
Format settings, GMC             : No warppoints
Format settings, Matrix          : Custom
Codec ID                         : XVID
Codec ID/Hint                    : XviD
Duration                         : 2h 23mn
Bit rate                         : 584 Kbps
Width                            : 608 pixels
Height                           : 256 pixels
Display aspect ratio             : 2.35:1
Frame rate                       : 23.976 fps
Color space                      : YUV
Chroma subsampling               : 4:2:0
Bit depth                        : 8 bits
Scan type                        : Progressive
Bits/(Pixel*Frame)               : 0.156
Stream size                      : 600 MiB (86%)
Writing library                  : XviD 1.2.1 (UTC 2008-12-04)

Audio
ID                               : 1
Format                           : MPEG Audio
Format version                   : Version 1
Format profile                   : Layer 3
Mode                             : Joint stereo
Mode extension                   : MS Stereo
Codec ID                         : 55
Codec ID/Hint                    : MP3
Duration                         : 2h 23mn
Bit rate mode                    : Variable
Bit rate                         : 85.5 Kbps
Channel(s)                       : 2 channels
Sampling rate                    : 32.0 KHz
Stream size                      : 87.8 MiB (13%)
Alignment                        : Aligned on interleaves
Interleave, duration             : 36 ms (0.86 video frame)
Interleave, preload duration     : 330 ms


 
http://www.imdb.com/title/tt2377938/

Special 26 Cast & Crew:

    Banner
    Viacom 18 Motion Pictures
    Wide Frames Films
    A Friday Filmworks

    Status
    Released

    Release Date
    8 Feb 2013

    Genre
    Action,Crime

    Producer
    Shital Bhatia
    Kumar Mangat Pathak

    Star Cast
    Akshay Kumar.... Ajay
    Kajal Aggarwal.... Priya
    Anupam Kher.... Sharma
    Rajesh Sharma.... Joginder
    Kishore Kadam.... Iqbal
    Jimmy Shergill.... Police Officer Ranveer Singh
    Manoj bajpayee.... CBI Officer Waseem
    Vipin Sharma.... ACP
    Deepraj Rana.... Rahul
    Divya Dutta.... Police Officer Shanti
    Sukhwinder Chahal.... Minister Gupta
    Abha Parmar.... Minister Gupta's Wife
    Mukesh Bhatt 1.... Minister's PA
    Neetu Singh 1.... Waseem's Wife
    Neeru Singh.... Dance Number
    Ujjwal Chopra.... Solanki
    Paritosh Sand.... Additional Director CBI
    Gurpal Singh.... Telephone Repair Guy
    Jarnail Singh.... Telephone Recording Guy
    Tiku Talsania.... Jewellery Shop Owner

    Story / Writers
    Neeraj Pandey

    Background Music
    Surender Sodhi

    Choreographers
    Ganesh Acharya

    Costume Designers
    Falguni Thakore

    Publicity Pro
    Spice

    Censor Details:

    Censor Dates
    4 Feb 2013


Music Director

    M.M. Kareem
    Himesh Reshammiya

Color
C
Language
Hindi
Director

    Neeraj Pandey

Singers

    Sunidhi Chauhan
    Bappi Lahiri
    M.M. Kareem
    K K
    Aman Trikha
    Shabab Sabri
    Shreya Ghoshal
    Chaitra Ambadipudi
    Keerthi Sagathia
    Papon

Lyricist

    Irshad Kamil
    Shabbir Ahmed

Editor

    Shree Narayan Singh

Cinematography

    Bobby Singh

Production Designers

    Sunil Babu

Action

    Abbas Ali Moghul

Publicity Designers

    Marching Ants
    Ravi Padda
    Binny Padda

    Shooting Location(City & Country)
    India

    Sound
    Debasish Mishra

    Music Company
    T-Series


		
Special.Chabbis.2013.DVDRip.XviD.1xCD.Subs.English.Arabic.RRG.DADA/Special.Chabbis.2013.DVDRip.XviD.1xCD.Subs.English.Arabic.RRG.DADA.DBBIANS.Com.avi 731.537 MB
Special.Chabbis.2013.DVDRip.XviD.1xCD.Subs.English.Arabic.RRG.DADA/smpl-Special.Chabbis.2013.DVDRip.XviD.1xCD.Subs.English.Arabic.RRG.DADA.DBBIANS.Com.avi 5.622 MB
Special.Chabbis.2013.DVDRip.XviD.1xCD.Subs.English.Arabic.RRG.DADA/MultiSub.Special.Chabbis.2013.DVDRip.XviD.1xCD.Subs.English.Arabic.RRG.DADA.DBBIANS.Com.rar 1.562 MB
Gathering some info...

Register and log in Isohunt and see no captcha anymore!

4000 symbols left
Hash c65414b7e404ee23ff54d31407d916a2d8f02777

Related torrents for "Special.Chabbis.2013.DVDRip.XviD.1xCD.Subs.English.Arabic.RRG.DADA"

Torrent search:

dvdrip english subs farsi 2013