imdb
rating

8.0
Mystic River

Mystic River (2003)

Crime, Drama, Mystery, Thriller

Full description

Mystic River [2003] 720p BRRip H264 AC3 - CODY

Size 2.164 GB   7 seeders     Added 2013-03-13 06:15:43

Stream torrent
Starting‥ You need BitLord! Get it from BitLord.com
To download or stream you need BitLord. Visit them at BitLord.com
General
Complete name                            : Mystic River [2003] 720p BRRip H264 AC3 - CODY.mp4
Format                                   : MPEG-4
Format profile                           : Base Media
Codec ID                                 : isom
File size                                : 2.01 GiB
Duration                                 : 2h 17mn
Overall bit rate mode                    : Variable
Overall bit rate                         : 2 091 Kbps
Encoded date                             : UTC 2013-01-14 17:52:21

Video
ID                                       : 1
Format                                   : AVC
Format/Info                              : Advanced Video Codec
Format profile                           : High@L4.1
Format settings, CABAC                   : Yes
Format settings, ReFrames                : 5 frames
Codec ID                                 : avc1
Codec ID/Info                            : Advanced Video Coding
Duration                                 : 2h 17mn
Bit rate mode                            : Variable
Bit rate                                 : 1 640 Kbps
Maximum bit rate                         : 20.0 Mbps
Width                                    : 1 280 pixels
Height                                   : 536 pixels
Display aspect ratio                     : 2.40:1
Frame rate mode                          : Constant
Frame rate                               : 23.976 fps
Color space                              : YUV
Chroma subsampling                       : 4:2:0
Bit depth                                : 8 bits
Scan type                                : Progressive
Bits/(Pixel*Frame)                       : 0.100
Stream size                              : 1.58 GiB (78%)
Writing library                          : x264 core 125 r2208 d9d2288
Encoding settings                        : rc=2pass
Color primaries                          : Generic film

Audio
ID                                       : 2
Format                                   : AC-3
Format/Info                              : Audio Coding 3
Mode extension                           : CM (complete main)
Format settings, Endianness              : Big
Codec ID                                 : ac-3
Duration                                 : 2h 17mn
Bit rate mode                            : Constant
Bit rate                                 : 448 Kbps
Channel(s)                               : 6 channels
Channel positions                        : Front: L C R, Side: L R, LFE
Sampling rate                            : 48.0 KHz
Bit depth                                : 16 bits
Compression mode                         : Lossy
Delay relative to video                  : 125ms
Stream size                              : 442 MiB (21%)

Audio language                           : English

IMDB link:                                 http://www.imdb.com/title/tt0327056/

Subtitles included                       : Romanian

Please seed at least 1,5:1 . This way this torrent has a chance to survive !

Thanks . Enjoy !! 
		
Mystic River [2003] 720p BRRip H264 AC3 - CODY/Cover.jpg 428.232 KB
Mystic River [2003] 720p BRRip H264 AC3 - CODY/Info_by_Cody.txt 7.856 KB
Mystic River [2003] 720p BRRip H264 AC3 - CODY/Mystic River [2003] 720p BRRip H264 AC3 - CODY.mp4 2.163 GB
Gathering some info...

Register and log in Isohunt and see no captcha anymore!

4000 symbols left
Hash 962f9436eed7fe6ed0cf48da66567106958a7699

Related torrents for "Mystic River [2003] 720p BRRip H264 AC3 - CODY"

Torrent search:

2003 h264 hd bd