La.Guerre.des.Boutons.2011.DVDRip.AC3.HORiZON-ArtSubs

Size 1.471 GB   0 seeders     Added 2013-03-13 07:31:49

Stream torrent
Starting‥ You need BitLord! Get it from BitLord.com
To download or stream you need BitLord. Visit them at BitLord.com
Title: La Guerre des Boutons aka War of the Buttons

Plot: In the countryside of France, two groups of boys from the rural villages of Longeverne and Velran are in constant war against each other. Their war is a tradition that passes from father to son and without a motive but the rivalry between the peasants. During the Algerian War, the Longeverne boys are led by the intelligent William Lebrac, who has been the backer of his family since his father died, while the Velrans are led by the wicked Aztec. The boys are frequently fighting with their wooden swords, throwing rotten fruits or building traps in the woods expecting to remove the buttons from the enemies' clothes. But Lebrac is coming of age and he has a crush on the girl Lanterne while his teacher Merlin offers the chance for him to have a better study in another village. (IMDB)

Audio: French

Subtitles: ENGLISH and BRAZILIAN PORTUGUESE

IMDB: http://www.imdb.com/title/tt1861375/


General
Complete name                    : La.Guerre.des.Boutons.2011.DVDRip.AC3.HORiZON-ArtSubs
Format                           : AVI
Format/Info                      : Audio Video Interleave
File size                        : 1.37 GiB
Duration                         : 1h 49mn
Overall bit rate                 : 1 794 Kbps
Writing application              : FairUse Wizard - http://fairusewizard.com
Writing library                  : The best and REALLY easy backup tool

Video
ID                               : 0
Format                           : MPEG-4 Visual
Format profile                   : Advanced Simple@L5
Format settings, BVOP            : Yes
Format settings, QPel            : No
Format settings, GMC             : No warppoints
Format settings, Matrix          : Default (H.263)
Muxing mode                      : Packed bitstream
Codec ID                         : XVID
Codec ID/Hint                    : XviD
Duration                         : 1h 49mn
Bit rate                         : 1 592 Kbps
Width                            : 704 pixels
Height                           : 384 pixels
Display aspect ratio             : 16:9
Frame rate                       : 23.976 fps
Color space                      : YUV
Chroma subsampling               : 4:2:0
Bit depth                        : 8 bits
Scan type                        : Progressive
Compression mode                 : Lossy
Bits/(Pixel*Frame)               : 0.246
Stream size                      : 1.22 GiB (89%)
Writing library                  : XviD 1.1.0 (UTC 2005-11-22)

Audio
ID                               : 1
Format                           : AC-3
Format/Info                      : Audio Coding 3
Mode extension                   : CM (complete main)
Codec ID                         : 2000
Duration                         : 1h 49mn
Bit rate mode                    : Constant
Bit rate                         : 192 Kbps
Channel(s)                       : 2 channels
Channel positions                : Front: L R
Sampling rate                    : 48.0 KHz
Bit depth                        : 16 bits
Compression mode                 : Lossy
Stream size                      : 150 MiB (11%)
Alignment                        : Split accross interleaves
Interleave, duration             : 42 ms (1.00 video frame)
Interleave, preload duration     : 500 ms
		
La.Guerre.des.Boutons.2011.DVDRip.AC3.HORiZON-ArtSubs/La.Guerre.des.Boutons.2011.DVDRip.AC3.HORiZON-ArtSubs.avi 1.471 GB
La.Guerre.des.Boutons.2011.DVDRip.AC3.HORiZON-ArtSubs/La.Guerre.des.Boutons.2011.DVDRip.AC3.HORiZON-ArtSubs.br.srt 97.195 KB
La.Guerre.des.Boutons.2011.DVDRip.AC3.HORiZON-ArtSubs/La.Guerre.des.Boutons.2011.DVDRip.AC3.HORiZON-ArtSubs.eng.srt 95.066 KB
Gathering some info...

Register and log in Isohunt and see no captcha anymore!

4000 symbols left
Hash 662d2848479373431e8952d7d9c60931d7e4c231