E! Special

E! Special (2014)

Full description

SPECIAL 26 (2013) 1 CD DVD RIP . XVID E.SUBS TEAM IcTv xclusive

Size 728.744 MB   1 seeders     Added 2013-03-13 08:30:51

Stream torrent
Starting‥ You need BitLord! Get it from 1BitLord.com
To download or stream you need BitLord. Visit them at BitLord.com
 image 
image 
image 
image 
image 
image

Media Info - 
Video
ID : 0
Format : MPEG-4 Visual
Format profile : Advanced Simple@L5
Format settings, BVOP : 2
Format settings, QPel : Yes
Format settings, GMC : No warppoints
Format settings, Matrix : Default (H.263)
Codec ID : XVID
Codec ID/Hint : XviD
Duration : 2h 23mn
Bit rate : 575 Kbps
Width : 608 pixels
Height : 256 pixels
Display aspect ratio : 2.40:1
Frame rate : 23.976 fps
Color space : YUV
Chroma subsampling : 4:2:0
Bit depth : 8 bits
Scan type : Progressive
Compression mode : Lossy
Bits/(Pixel*Frame) : 0.154
Stream size : 590 MiB (85%)
Writing library : XviD 1.2.1 (UTC 2008-12-04)

Audio
ID : 1
Format : MPEG Audio
Format version : Version 1
Format profile : Layer 3
Mode : Joint stereo
Mode extension : MS Stereo
Codec ID : 55
Codec ID/Hint : MP3
Duration : 2h 23mn
Bit rate mode : Constant
Bit rate : 96.0 Kbps
Channel(s) : 2 channels
Sampling rate : 32.0 KHz
Compression mode : Lossy
Stream size : 98.6 MiB (14%)
Alignment : Aligned on interleaves
Interleave, duration : 167 ms (4.00 video frames)
Interleave, preload duration : 216 ms
Title : VTS_02_1 T81 2_0ch 448Kbps DELAY 0ms_new
Writing library : LAME3.99r
Encoding settings : -m j -V 4 -q 2 -lowpass 15.1 -b 96

Ripper : Master Mind

Seeding 24x7... Extreme Seeding...


Enjoy!
		
SPECIAL 26 (2013) 1 CD DVD RIP . XVID E.SUBS TEAM IcTv xclusive/SPECIAL 26 (2013) 1 CD DVD RIP . XVID E.SUBS TEAM IcTv Exclusive.srt 112.326 KB
SPECIAL 26 (2013) 1 CD DVD RIP . XVID E.SUBS TEAM IcTv xclusive/SPECIAL 26 (2013) 1 CD DVD RIP . XVID E.SUBS TEAM IcTv Exclusive.avi 728.632 MB
Gathering some info...

Register and log in Isohunt and see no captcha anymore!

4000 symbols left
Hash 857ad2579612ff9669a5a7ccd4a051ded64775d3