imdb
rating

7.6
Breakthrough

Breakthrough (2015)

Documentary

Full description

Breakthrough (1979)

Size 1.585 GB   0 seeders     Added 2013-03-13 11:16:51

Stream torrent
Starting‥ You need BitLord! Get it from BitLord.com
To download or stream you need BitLord. Visit them at BitLord.com
*******************************************************************************
                              Breakthrough (1979)
*******************************************************************************

-------------------------------------------------------------------------------
                              General Information
-------------------------------------------------------------------------------
Type.................: Movie



Video Format.........: AVI
Video Bitrate........: 2263
Resolution...........: 720 x 540
Color................: 8 bit
FPS..................: 29.970
Source...............: DVD 4x3
Original Format......: NTSC
Genre................: War
IMDb Rating..........: 4.9
Movie Information....: http://www.imdb.com/title/tt0078320/

-------------------------------------------------------------------------------
                               Post Information
-------------------------------------------------------------------------------
Posted by............: RadioResearch
Posted on............: 3/13/2013

-------------------------------------------------------------------------------
                                 Release Notes
-------------------------------------------------------------------------------
SEEDBOX SUPPORTED!!

German sergeant gets involved in anti-Hitler conspiracy, and saves the life of 
an American colonel. 

Not a very good summary from IMDB.  This is the much-maligned sequel to 
Peckinpah's Cross of Iron, with the further adventures of Senior Sergeant Rolf 
Steiner, played here by Richard Burton.  Burton is a pitiful Steiner with none 
of the stoic cynicism exhibited by his predecessor, James Coburn.  In fact, 
Burton was nearly at the end of his career (and life) when this film was made, 
and his alcohol-ravaged body can barely do some of the stunts it was called upon 
to do (like walking....).

Nevertheless, the film is somewhat of a rarity.  It was produced in West 
Germany, and orignally released in German as Steiner, das eiserne Kreuz, 2. 
Teil.  The running time for the German version is stated as 115 minutes, but the 
copy of the German version that I have is only 105 minutes.  This English 
version is 93 minutes.  If anyone is interested in seeing the German version, 
please let me know, and I will put it up.

This film, nonetheless has many great actors, including some of the stars of the 
first Cross of Iron film.  Corporal Amseln and Corporal Krueger, both make 
return appearances.

Stars: Richard Burton, Rod Steiger, Helmut Griem, Klaus Loewitsch, Michael 
Parks, Dieter Schidor, Robert Mitchum, Curd Juergens, and many more!  An all-
star cast!

Although this was ripped from a DVD, one can plainly see the DVD was made from a 
processed video.  The quality is quite good: A=10 V=9.

As a special bonus, I have included a film marketing photo from the original 
Cross of Iron.  This photo is a platoon photo of Steiner with the original 
platoon.  It would make a great wallpaper or if you print it our on photo paper, 
it is great for framing!

Enjoy!

RadioResearch


General
Complete name                            : H:Breakthrough 
(1979)Breakthrough_Title1.avi
Format                                   : AVI
Format/Info                              : Audio Video Interleave
Format profile                           : OpenDML
File size                                : 1.47 GiB
Duration                                 : 1h 32mn
Overall bit rate                         : 2 263 Kbps
Movie name                               : Breakthrough
Writing application                      : MEncoder 5.0
Writing library                          : [= DigiArty videodll! =]

Video
ID                                       : 0
Format                                   : MPEG-4 Visual
Format profile                           : Simple@L1
Format settings, BVOP                    : No
Format settings, QPel                    : No
Format settings, GMC                     : No warppoints
Format settings, Matrix                  : Default (H.263)
Codec ID                                 : DX50
Codec ID/Hint                            : DivX 5
Duration                                 : 1h 32mn
Bit rate                                 : 2 000 Kbps
Width                                    : 720 pixels
Height                                   : 540 pixels
Display aspect ratio                     : 4:3
Frame rate                               : 29.970 fps
Color space                              : YUV
Chroma subsampling                       : 4:2:0
Bit depth                                : 8 bits
Scan type                                : Progressive
Compression mode                         : Lossy
Bits/(Pixel*Frame)                       : 0.172
Stream size                              : 1.30 GiB (88%)
Writing library                          : Lavc54.71.100

Audio
ID                                       : 1
Format                                   : AC-3
Format/Info                              : Audio Coding 3
Mode extension                           : CM (complete main)
Format settings, Endianness              : Big
Codec ID                                 : 2000
Duration                                 : 1h 32mn
Bit rate mode                            : Constant
Bit rate                                 : 256 Kbps
Channel(s)                               : 2 channels
Channel positions                        : Front: L R
Sampling rate                            : 48.0 KHz
Bit depth                                : 16 bits
Compression mode                         : Lossy
Stream size                              : 170 MiB (11%)
Alignment                                : Split accross interleaves
Interleave, duration                     : 500 ms (14.98 video frames)
Interleave, preload duration             : 500 ms





-------------------------------------------------------------------------------
Generated with Cool NFO Creator - http://fly.to/coolbeans
-------------------------------------------------------------------------------
		
Breakthrough (1979)/Breakthrough.nfo 6.215 KB
Breakthrough (1979)/Breakthrough_Title1.avi 1.577 GB
Breakthrough (1979)/info.txt 2.773 KB
Gathering some info...

Register and log in Isohunt and see no captcha anymore!

4000 symbols left
Hash 647c71cff5bf81cf68a5cf34980b8575657d0fec

Related torrents for "Breakthrough (1979)"

Torrent search:

1979