imdb
rating

7.2
Offline

Offline (2012)

Drama

Full description

[ www.Speed.Cd ] - Community 2012 DVDRip x264 AAC-OFFLiNE

Size 744.112 MB   0 seeders     Added 2013-03-13 12:02:54

Stream torrent
Starting‥ You need BitLord! Get it from BitLord.com
To download or stream you need BitLord. Visit them at BitLord.com
- 
http://www.Speed.Cd
 
http://www.Speed.Cd       the fast  and The Hottest Private Tracker on the net

Please Seed back to make the speed Faster!!
 ............ NFO .............
-[IMG]image[/IMG]

Source: DVDR  L-S
 
http://www.imdb.com/title/tt2087720/

The Horror Has Reached Your Neighbourhood

General
Complete name                            : Community 2012 DVDRip x264 AAC-OFFLiNE.mp4
Format                                   : MPEG-4
Format profile                           : Base Media
Codec ID                                 : isom
File size                                : 700 MiB
Duration                                 : 1h 20mn
Overall bit rate mode                    : Variable
Overall bit rate                         : 1 212 Kbps
Encoded date                             : UTC 2013-03-12 12:10:53
Tagged date                              : UTC 2013-03-12 12:10:53

Video
ID                                       : 1
Format                                   : AVC
Format/Info                              : Advanced Video Codec
Format profile                           : High@L4.1
Format settings, CABAC                   : Yes
Format settings, ReFrames                : 3 frames
Codec ID                                 : avc1
Codec ID/Info                            : Advanced Video Coding
Duration                                 : 1h 20mn
Bit rate mode                            : Variable
Bit rate                                 : 1 115 Kbps
Maximum bit rate                         : 40.0 Mbps
Width                                    : 720 pixels
Height                                   : 304 pixels
Display aspect ratio                     : 2.35:1
Frame rate mode                          : Constant
Frame rate                               : 25.000 fps
Color space                              : YUV
Chroma subsampling                       : 4:2:0
Bit depth                                : 8 bits
Scan type                                : Progressive
Bits/(Pixel*Frame)                       : 0.204
Stream size                              : 643 MiB (92%)
Writing library                          : x264 core 130 r2273 b3065e6

Audio
ID                                       : 2
Format                                   : AAC
Format/Info                              : Advanced Audio Codec
Format profile                           : LC
Codec ID                                 : 40
Duration                                 : 1h 20mn
Bit rate mode                            : Variable
Bit rate                                 : 93.5 Kbps
Maximum bit rate                         : 143 Kbps
Channel(s)                               : 2 channels
Channel positions                        : Front: L R
Sampling rate                            : 48.0 KHz
Compression mode                         : Lossy
Stream size                              : 54.0 MiB (8%)
Language                                 : English
Encoded date                             : UTC 2013-03-11 23:23:44
Tagged date                              : UTC 2013-03-12 12:11:25

[IMG]image[/IMG]
[IMG]image[/IMG]
[IMG]image[/IMG]
[IMG]image[/IMG]
[IMG]image[/IMG]
[IMG]image[/IMG]

Greets: To Our Friends		
[ www.Speed.Cd ] - Community 2012 DVDRip x264 AAC-OFFLiNE/Community 2012 DVDRip x264 AAC-OFFLiNE.mp4 733.611 MB
[ www.Speed.Cd ] - Community 2012 DVDRip x264 AAC-OFFLiNE/community.nfo 3.273 KB
[ www.Speed.Cd ] - Community 2012 DVDRip x264 AAC-OFFLiNE/sample.mp4 10.498 MB
Gathering some info...

Register and log in Isohunt and see no captcha anymore!

4000 symbols left
Hash 1c8e3c9e5b79568e0ead1ae157b17218afb271b8

Related torrents for "[ www.Speed.Cd ] - Community 2012 DVDRip x264 AAC-OFFLiNE"

Torrent search:

dvdrip x264 2012