imdb
rating

8.0
Special 26

Special 26 (2013)

Crime, Drama, Thriller

Full description
quality   hd x264 dvdrip

Special 26 2013 Hindi Movies HDDVD Rip XviD E-M-Subs New Source Sample Included ~ rDX

Size 732.565 MB   1 seeders     Added 2013-03-14 00:57:32

Stream torrent
Starting‥ You need BitLord! Get it from BitLord.com
To download or stream you need BitLord. Visit them at BitLord.com
							Special 26 2013 Hindi Movies HDDVD Rip XviD E-M-Subs New Source Sample Included ~ rDXScreen Shots :http://myimghosting.serveftp.com/13/Special26DVD.htmlhttp://myimghost.cwahi.net/Special26DVD.html
Format : AVI
Format/Info : Audio Video Interleave
File size : 672 MiB
Duration : 2h 20mn
Overall bit rate : 671 Kbps
Writing library : MPlayer
Video
ID : 0
Format : MPEG-4 Visual
Format profile : Advanced Simple@L5
Format settings, BVOP : 2
Format settings, QPel : Yes
Format settings, GMC : No warppoints
Format settings, Matrix : Default (H.263)
Codec ID : XVID
Codec ID/Hint : XviD
Duration : 2h 20mn
Bit rate : 570 Kbps
Width : 608 pixels
Height : 256 pixels
Display aspect ratio : 2.40:1
Frame rate : 23.976 fps
Color space : YUV
Chroma subsampling : 4:2:0
Bit depth : 8 bits
Scan type : Progressive
Compression mode : Lossy
Bits/(Pixel*Frame) : 0.153
Stream size : 571 MiB (85%)
Writing library : XviD 1.2.1 (UTC 2008-12-04)
Audio
ID : 1
Format : MPEG Audio
Format version : Version 1
Format profile : Layer 3
Mode : Joint stereo
Mode extension : MS Stereo
Codec ID : 55
Codec ID/Hint : MP3
Duration : 2h 20mn
Bit rate mode : Constant
Bit rate : 96.0 Kbps
Channel(s) : 2 channels
Sampling rate : 32.0 KHz
Compression mode : Lossy
Stream size : 96.1 MiB (14%)
Alignment : Split accross interleaves
Interleave, duration : 500 ms (11.99 video frames)
Interleave, preload duration : 500 ms
Writing library : LAME3.99.4
						
Special 26 2013 Hindi Movies HDDVD Rip XviD E-M-Subs New Source Sample Included ~ rDX/Special 26 2013 Hindi Movies HDDVD Rip XviD E-M-Subs New Source ~ rDX.avi 704.744 MB
Special 26 2013 Hindi Movies HDDVD Rip XviD E-M-Subs New Source Sample Included ~ rDX/Sample ~ Special 26 2013 Hindi Movies HDDVD Rip XviD E-M-Subs New Source ~ rDX.avi 18.461 MB
Special 26 2013 Hindi Movies HDDVD Rip XviD E-M-Subs New Source Sample Included ~ rDX/Special 26 2013 Hindi Movies HDDVD Rip XviD E-M-Subs New Source ~ rDX.sub 9.095 MB
Gathering some info...

Register and log in Isohunt and see no captcha anymore!

4000 symbols left
Hash 47ff0eb5beba28a421ad47e998870c33c95a8926

Related torrents for "Special 26 2013 Hindi Movies HDDVD Rip XviD E-M-Subs New Source Sample Included ~ rDX"

Torrent search:

subs hindi 2013