imdb
rating

6.4
Oz: The Great and Powerful

Oz: The Great and Powerful (2013)

Adventure, Fantasy, Family

Full description

[ www.Speed.Cd ] - Oz the Great and Powerful 2013 HDTS OWNSOURCE XviD [1000mb]-THC

Size 1.067 GB   0 seeders     Added 2013-03-14 02:00:55

Stream torrent
Starting‥ You need BitLord! Get it from 1BitLord.com
To download or stream you need BitLord. Visit them at BitLord.com
- 
http://www.Speed.Cd
 
http://www.Speed.Cd       the fast  and The Hottest Private Tracker on the net

Please Seed back to make the speed Faster!!
 ............ NFO .............
-[IMG]image[/IMG]

[IMG]image[/IMG]

[IMG]image[/IMG]
 
http://www.imdb.com/title/tt1623205/

Source: OWN
Audio: MiNiSTRY...THX

Format                           : AVI
Format/Info                      : Audio Video Interleave
File size                        : 1 011 MiB
Duration                         : 2h 4mn
Overall bit rate                 : 1 137 Kbps
Writing library                  : VirtualDub build 35390/release

Video
ID                               : 0
Format                           : MPEG-4 Visual
Format profile                   : Advanced Simple@L5
Format settings, BVOP            : Yes
Format settings, QPel            : No
Format settings, GMC             : No warppoints
Format settings, Matrix          : Default (H.263)
Muxing mode                      : Packed bitstream
Codec ID                         : XVID
Codec ID/Hint                    : XviD
Duration                         : 2h 4mn
Bit rate                         : 1 000 Kbps
Width                            : 640 pixels
Height                           : 270 pixels
Display aspect ratio             : 2.35:1
Frame rate                       : 25.000 fps
Color space                      : YUV
Chroma subsampling               : 4:2:0
Bit depth                        : 8 bits
Scan type                        : Progressive
Bits/(Pixel*Frame)               : 0.231
Stream size                      : 889 MiB (88%)
Writing library                  : XviD 1.2.1 (UTC 2008-12-04)

Audio
ID                               : 1
Format                           : MPEG Audio
Format version                   : Version 1
Format profile                   : Layer 3
Mode                             : Joint stereo
Mode extension                   : MS Stereo
Codec ID                         : 55
Codec ID/Hint                    : MP3
Duration                         : 2h 4mn
Bit rate mode                    : Constant
Bit rate                         : 128 Kbps
Channel(s)                       : 2 channels
Sampling rate                    : 48.0 KHz
Stream size                      : 114 MiB (11%)
Alignment                        : Split accross interleaves
Interleave, duration             : 40 ms (1.00 video frame)
Interleave, preload duration     : 500 ms
Writing library                  : LAME3.98.2

Note:
We had the source file for a little while but waited for line. We used MiNiSTRY audio but it had 4 cuts in it nothing big or noticeable. We took our time syncing it up so it should be right on. We also did 3 version, 720p, 720x304, and 640x270. The video is the full video uncropped like the russian source on the top and bottom. Did all kinds of filters without over doing it, but im sure there someone out there that will complain again. So enjoy 

+1Rep Please If you enjoy this release :)

[IMG]image[/IMG]

[IMG]image[/IMG]
[IMG]image[/IMG]
[IMG]image[/IMG]
[IMG]image[/IMG]
[IMG]image[/IMG]		
[ www.Speed.Cd ] - Oz the Great and Powerful 2013 HDTS OWNSOURCE XviD [1000mb]-THC/Oz the Great and Powerful 2013 HDTS OWNSOURCE XviD [1000mb]-THC.avi 1.06 GB
[ www.Speed.Cd ] - Oz the Great and Powerful 2013 HDTS OWNSOURCE XviD [1000mb]-THC/Oz the Great and Powerful 2013 HDTS OWNSOURCE XviD [1000mb]-THC_SAMPLE.avi 6.918 MB
[ www.Speed.Cd ] - Oz the Great and Powerful 2013 HDTS OWNSOURCE XviD [1000mb]-THC/SmallNFO.NFO 6.59 KB
Gathering some info...

Register and log in Isohunt and see no captcha anymore!

4000 symbols left
Hash 647a224b8455f2e4a4f82232b41237574ccd480f

Related torrents for "[ www.Speed.Cd ] - Oz the Great and Powerful 2013 HDTS OWNSOURCE XviD [1000mb]-THC"

Torrent search:

2013